<?xml version="1.0" standalone="no"?>
<!DOCTYPE svg PUBLIC "-//W3C//DTD SVG 1.1//EN" "http://www.w3.org/Graphics/SVG/1.1/DTD/svg11.dtd" >
<svg>
<metadata>
Created by FontForge 20090622 at Fri Dec 28 02:56:32 2018
 By deploy user
(c) COPYRIGHT H. BERTHOLD AG 1992 Alle Rechte vorbehalten.
</metadata>
<defs>
<font id="EurostileBQ-BoldExtended" horiz-adv-x="833" >
  <font-face 
    font-family="Eurostile BQ"
    font-weight="500"
    font-stretch="normal"
    units-per-em="1000"
    panose-1="0 0 0 0 0 0 0 0 0 0"
    ascent="800"
    descent="-200"
    x-height="500"
    cap-height="706"
    bbox="-255 -262 1505 955"
    underline-thickness="50"
    underline-position="-75"
    unicode-range="U+0020-U+FB02"
  />
<missing-glyph horiz-adv-x="313" 
 />
    <glyph glyph-name=".notdef" horiz-adv-x="313" 
 />
    <glyph glyph-name=".null" horiz-adv-x="0" 
 />
    <glyph glyph-name="nonmarkingreturn" horiz-adv-x="333" 
 />
    <glyph glyph-name="space" unicode=" " horiz-adv-x="313" 
 />
    <glyph glyph-name="exclam" unicode="!" horiz-adv-x="333" 
d="M287 706l-10 -417h-187l-11 417h208zM79 197h212v-197h-212v197z" />
    <glyph glyph-name="quotedbl" unicode="&#x22;" horiz-adv-x="396" 
d="M319 408h-31l-55 250q-3 27 -1 37q4 26 25.5 40t48.5 14q30 0 46 -15t20 -33q2 -11 0 -31zM111 408h-32l-54 250q-4 23 -1 37q4 26 25.5 40t48.5 14q24 0 42.5 -12.5t23.5 -35.5q1 -10 0 -31z" />
    <glyph glyph-name="numbersign" unicode="#" horiz-adv-x="667" 
d="M459 0h-126l27 186h-99l-26 -186h-124l25 186h-94v124h112l13 95h-100v124h117l25 177h124l-25 -177h100l24 177h125l-24 -177h91v-124h-109l-12 -95h98v-124h-116zM377 310l14 95h-100l-13 -95h99z" />
    <glyph glyph-name="dollar" unicode="$" horiz-adv-x="1104" 
d="M55 246h184q-5 -38 8 -64q10 -20 29.5 -26t53.5 -8h417q33 3 47.5 9.5t23.5 21.5q10 20 10 41t-11 39q-8 14 -21.5 21.5t-24 9t-33.5 2.5q-164 6 -247 6q-94 0 -140 2q-24 1 -128 8q-20 4 -29 6q-66 18 -94 53q-37 46 -37 140q0 28 4 49q8 70 46 108q21 21 50 33t50 14.5
t60 5.5h210v82h97v-83h38q100 0 150 -2l84 -6q72 -13 104 -43q25 -23 32.5 -58t7.5 -108l-185 1q-3 30 -18 45q-18 17 -72 19h-383q-20 0 -28.5 -0.5t-21.5 -6t-21 -16.5q-12 -17 -12 -39q0 -17 8 -32q9 -16 23 -20.5t38 -6.5l428 -6q91 -3 132 -10t72 -31q21 -16 35 -38
q27 -44 27 -128q0 -33 -4 -60q-12 -89 -65 -127q-42 -30 -134 -44q-90 -6 -136 -7q-66 0 -99 1v-91h-98v90q-63 -1 -124 0q-42 1 -126 9q-59 9 -84 20q-96 40 -96 171z" />
    <glyph glyph-name="percent" unicode="%" horiz-adv-x="1458" 
d="M45 483q0 65 5 105q10 67 46 95q36 27 109 23q92 8 138 8q44 0 134 -8q59 -5 88 -34q23 -24 30.5 -58t7.5 -103q0 -58 -4 -103q-7 -79 -47 -112q-27 -22 -103 -34q-119 -2 -143 -2q-1 0 -100 3q-82 10 -116 38q-28 23 -37 63t-8 119zM182 476q0 -47 10 -67
q8 -15 21.5 -19.5t36.5 -6.5h5q44 -4 65 -4q18 0 58 2q42 0 57 12q27 21 27 72v19q-1 19 0 19v3q0 3 0.5 7t0 9.5l-1 11t-2 12t-4.5 12t-6.5 11t-9 9.5t-12.5 7q-27 10 -92 10q-37 0 -78 -3q-19 -1 -28 -2t-19.5 -7.5t-16.5 -19.5q-11 -24 -11 -87zM903 706h151l-496 -706
h-150zM1188 -7l-192 7q-4 0 -12 1t-12 1q-71 8 -98 60q-18 35 -20 131q2 84 5 109q7 71 41 105q16 15 35 23.5t33.5 10.5t41.5 4q13 0 36 1t42 1.5t36 0.5q44 0 132 -4q37 -6 54.5 -10t41 -17t37.5 -35q19 -29 24 -91q2 -58 1 -88q0 -12 -1.5 -36t-2.5 -37q-4 -25 -7 -37.5
t-11 -30t-22 -30.5q-25 -23 -65.5 -31t-116.5 -8zM996 207q1 -44 11.5 -62t32.5 -23q26 -7 97 -7q10 0 31.5 0.5t32.5 0.5q34 0 51 14q25 20 25 63q0 4 -1 19.5t0 24.5q0 1 0.5 7.5t0.5 13t-1 14.5t-4 16.5t-8 14.5q-14 18 -40 21q-50 5 -109 5q-15 0 -49 -2q-28 0 -42 -11
q-31 -21 -28 -109z" />
    <glyph glyph-name="ampersand" unicode="&#x26;" horiz-adv-x="1125" 
d="M885 483h-186q-1 47 -12 60.5t-56 20.5q-66 4 -99 4q-52 0 -106 -3q-23 0 -37 -6q-4 -1 -9.5 -4.5t-11.5 -12.5t-6 -19q0 -6 5 -21q9 -16 39 -31l362 -182v93l181 -1q2 -44 0 -88q-1 -40 -8 -88l151 -82l-67 -129l-136 71q-15 -11 -45 -31q-27 -16 -54 -23.5t-87 -14.5
q-122 -4 -183 -4q-81 0 -247 10q-7 1 -21.5 4t-21.5 4q-99 19 -131 79q-21 41 -21 121q0 6 0.5 19t0.5 20q5 73 28 105q31 42 133 51q-53 34 -66 58t-13 88q0 70 29 109q26 33 58 42.5t87 11.5q87 3 176 3q87 0 209 -7q20 -2 32 -4q9 -1 21 -3.5t32.5 -9t38 -21.5t26.5 -36
q17 -37 15 -153zM724 146l-41 23l-302 149q-19 13 -46 13q-13 -1 -25 -6q-24 -11 -32 -47q-6 -25 -6 -45q0 -62 51 -79q13 -4 35 -5q134 -6 200 -6q1 0 166 3z" />
    <glyph glyph-name="quotesingle" unicode="'" horiz-adv-x="208" 
d="M121 408h-32l-54 250q-4 20 -1 37q5 26 26 40t48 14q25 0 44 -13t23 -37q1 -11 -1 -29z" />
    <glyph glyph-name="parenleft" unicode="(" horiz-adv-x="458" 
d="M74 343l-1 43v36q0 52 1 77t10.5 70.5t28.5 72.5q16 22 45 40q53 30 160 24h88v-137q-97 -2 -118 -18q-28 -21 -28 -117v-149q-4 -78 18 -110q11 -15 18 -18q11 -6 34 -8h75v-149h-105q-6 0 -18 0.5t-18 0.5q-94 6 -139 53q-20 21 -32 53t-14.5 55t-4.5 62v119z" />
    <glyph glyph-name="parenright" unicode=")" horiz-adv-x="458" 
d="M164 231v244q-1 22 -5 37q-13 46 -58 51q-8 1 -80 1v142h129q40 3 70 -2q40 -8 70.5 -36t45.5 -69q8 -23 14 -76q3 -79 3 -159q0 -53 -4 -163q-3 -34 -5.5 -52.5t-12.5 -43.5t-28 -46q-28 -29 -53 -39q-57 -23 -231 -20v142q83 2 102 9q43 15 43 80z" />
    <glyph glyph-name="asterisk" unicode="*" horiz-adv-x="1146" 
d="M36 444l358 -8v-152l-358 -5v165zM411 252l137 -82l-106 -188l-148 89zM449 734l101 -191l-137 -75l-114 180zM719 249l116 -185l-156 -84l-96 192zM689 728l147 -84l-114 -177l-135 77zM741 434h347v-157l-353 7z" />
    <glyph glyph-name="plus" unicode="+" horiz-adv-x="667" 
d="M398 0h-128v228h-228v127h228v227h128v-227h227v-127h-227v-228z" />
    <glyph glyph-name="comma" unicode="," horiz-adv-x="313" 
d="M114 0h-65v196h214v-247q-4 -39 -12.5 -61.5t-33.5 -42.5q-30 -23 -68 -28t-126 -4v112q22 0 33 1t25 7t22 19q9 16 11 48z" />
    <glyph glyph-name="hyphen" unicode="-" horiz-adv-x="583" 
d="M35 373h497v-184h-497v184z" />
    <glyph glyph-name="period" unicode="." horiz-adv-x="313" 
d="M52 195h209v-196h-209v196z" />
    <glyph glyph-name="slash" unicode="/" horiz-adv-x="500" 
d="M337 706h123l-319 -706h-122z" />
    <glyph glyph-name="zero" unicode="0" horiz-adv-x="958" 
d="M410 714h113q126 0 181 -7q89 -11 132 -42q37 -29 55 -78q26 -66 26 -210v-52q0 -2 -0.5 -22.5l-1 -42t-4 -52t-9.5 -54.5q-13 -57 -38 -89q-27 -33 -73 -48q-69 -25 -229 -25h-85q-134 2 -201 6q-106 6 -155 40q-31 21 -49.5 58t-24.5 89.5t-7.5 81t-0.5 78.5v38
q5 123 21.5 183t63.5 96q33 25 68 33.5t91 13.5zM239 429v-146q2 -56 23 -82q23 -29 68 -37q34 -6 137 -9h58q44 0 89 8q39 7 58 19.5t30 32.5q17 31 13 96v109q-2 64 -25 92q-17 22 -38 28q-33 14 -151 17h-37q-50 -1 -105 -6q-66 -6 -93 -33q-16 -16 -21.5 -33.5
t-5.5 -55.5z" />
    <glyph glyph-name="one" unicode="1" horiz-adv-x="958" 
d="M396 706h263v-706h-209l6 544l-262 -181l-97 147z" />
    <glyph glyph-name="two" unicode="2" horiz-adv-x="958" 
d="M252 448h-198q-2 104 9.5 150t54.5 74q37 25 119 38q168 4 254 4q77 0 233 -4q107 -22 142 -64q38 -45 38 -151q0 -44 -7 -86q-3 -21 -8 -36q-12 -30 -28 -49q-20 -22 -48.5 -35t-49.5 -17.5t-60 -9.5l-368 -28q-54 -5 -70 -25q-13 -16 -13 -66h650v-143h-849v194
q2 77 29 117q16 24 44.5 39.5t50.5 20t65 11.5l363 27q17 1 26 2t21.5 4.5t20.5 10t14 17.5q11 20 11 43q0 22 -9 38q-11 22 -29 29t-51 9q-88 4 -130 4q-59 0 -131 -5q-44 -2 -66 -19q-13 -10 -20 -27t-8 -29.5t-2 -37.5z" />
    <glyph glyph-name="three" unicode="3" horiz-adv-x="958" 
d="M43 248h205q0 -45 2 -53q10 -46 80 -51q148 -5 178 -5q55 0 112 3q39 0 57 14q21 16 21 54q0 25 -10 43q-12 21 -31.5 26.5t-53.5 5.5h-210v138h208q29 1 45.5 6t26.5 23q10 17 10 39q0 23 -8 36q-9 18 -23.5 24t-42.5 9q-89 7 -152 7q-35 0 -111 -2q-1 0 -7.5 -1
l-13.5 -2t-16.5 -3.5t-17.5 -6.5q-19 -9 -26.5 -25t-9.5 -57h-201v44q0 98 52 144q43 38 171 52l305 4h7l125 -8l45 -6q41 -8 67 -25t45 -51q22 -42 22 -95q0 -43 -9 -80q-10 -41 -35.5 -59.5t-96.5 -37.5q93 -12 122 -42q34 -34 34 -115q0 -23 -3 -47q-8 -71 -46 -104
q-19 -17 -46.5 -27.5t-46.5 -13.5t-55 -7q-146 -4 -221 -4q-106 0 -256 7q-28 3 -44 5t-38 9.5t-40 19.5q-26 17 -41.5 43.5t-20.5 54t-7 59t0 58.5z" />
    <glyph glyph-name="four" unicode="4" horiz-adv-x="958" 
d="M57 391l522 315h246v-419h113v-147h-115v-140h-203v136h-563v255zM627 547l-423 -262h423v262z" />
    <glyph glyph-name="five" unicode="5" horiz-adv-x="958" 
d="M53 218h200q0 -35 17 -50q19 -18 78 -22h246q55 0 76 16q12 10 18 22q15 24 15 57q0 48 -17 70q-16 19 -68 25q-112 4 -166 3l-104 -3q-1 0 -10.5 -0.5t-17.5 -1t-18.5 -4t-17.5 -9.5q-9 -9 -19 -27h-186l8 412h790v-139h-611v-141q24 20 35 27q31 20 97 26q170 2 219 1
q78 -2 119 -4q46 -5 73 -16q50 -21 77 -68q28 -49 28 -140q0 -117 -48 -180q-24 -32 -53 -46q-39 -19 -133 -26q-138 -8 -207 -8q-70 0 -210 8q-61 11 -65 12q-97 24 -128 86q-20 39 -17 120z" />
    <glyph glyph-name="six" unicode="6" horiz-adv-x="958" 
d="M892 505l-201 1q-6 28 -28 40q-5 3 -10 5t-12 3.5t-11 2t-13.5 1t-14 1t-18 1t-19.5 0.5q-30 2 -45 2l-150 -5q-52 -6 -74 -25q-23 -20 -23 -73v-89q15 27 27.5 38.5t39.5 20.5q42 13 173 15l202 -6l37 -3q91 -13 122 -63q27 -44 27 -147q0 -81 -17 -123q-18 -41 -58 -68
q-44 -28 -142 -38q-118 -4 -178 -4q-96 0 -242 9l-34 6q-110 21 -144 112q-9 25 -15 79v158l6 154q4 45 12.5 71.5t32.5 53.5q8 9 18 17.5t19 14.5t20 11.5t19.5 9t19.5 7t18 5l17 3.5t14 2.5t13 1.5l8 1q132 6 196 6q98 0 250 -11q40 -8 63 -14q23 -8 38.5 -17t32 -36
t21.5 -68q1 -9 1.5 -19.5t1 -23.5t0.5 -20zM369 145h237q35 3 54.5 10t32.5 29q10 20 10 41q0 20 -8 36q-11 23 -29.5 30t-52.5 10h-247q-54 -4 -73 -20q-16 -12 -23 -42q0 -1 -0.5 -7.5t0 -12t1.5 -13t4 -16t8 -15.5q11 -16 28.5 -22t57.5 -8z" />
    <glyph glyph-name="seven" unicode="7" horiz-adv-x="958" 
d="M80 706h822v-160l-470 -546h-260l473 547h-565v159z" />
    <glyph glyph-name="eight" unicode="8" horiz-adv-x="958" 
d="M377 714h184q89 0 153 -5q94 -9 135 -43q52 -44 52 -129q0 -62 -13 -93.5t-41 -50.5q-18 -12 -43 -19q-10 -3 -22.5 -5t-22.5 -3t-11 -1q78 -15 113 -44q28 -22 36.5 -48.5t8.5 -69.5q0 -36 -1 -53q-5 -72 -52 -109q-24 -19 -59 -32q-45 -14 -169 -15q-23 -1 -71 -1
q-52 -1 -155 -1q-115 0 -172 6q-97 10 -138 51q-16 16 -27 42q-18 44 -18 113q0 73 45 110q33 29 111 49q-67 7 -96 29q-40 29 -50 98q-3 30 -3 51q0 35 9 62q21 62 87 88q55 20 230 23zM394 142h181q36 2 53 4q21 0 38 9q10 6 24 25q9 22 9 40q0 25 -15 46
q-16 23 -45.5 28.5t-59.5 -0.5h-173q-9 0 -29 -0.5t-30 -0.5q-37 0 -50 -5q-20 -8 -33.5 -28t-13.5 -42q0 -23 11 -41.5t30 -25.5q24 -9 103 -9zM353 431h224q54 -2 74 8q42 23 42 65q0 20 -13 40q-11 15 -26.5 22t-32 7t-36.5 -1h-197q-31 0 -47 -1q-25 0 -41 -7
q-8 -3 -16.5 -9t-18 -20.5t-9.5 -31.5q0 -20 10 -37q7 -12 16 -19t22 -10.5t22 -4.5t27 -1z" />
    <glyph glyph-name="nine" unicode="9" horiz-adv-x="958" 
d="M368 147h157q128 -3 152 37q10 16 12 85q1 24 3 68q-12 -20 -25 -32q-38 -34 -118 -38q-36 -2 -108 -4h-128q-43 1 -69.5 3.5t-66 13t-63.5 28.5q-65 50 -65 173q0 97 28 146q10 18 29 34q27 25 65 36q45 12 193 17h179q58 1 92.5 0t89.5 -11.5t89 -32.5q51 -34 68 -96
q12 -46 14 -204q0 -137 -9 -196q-14 -95 -81 -138q-34 -21 -89 -31.5t-88.5 -11.5t-91.5 -1h-196q-98 2 -148 9q-84 11 -121 53q-17 21 -25.5 46.5t-9.5 43.5t0 53h208q2 -17 3 -20q7 -19 39 -25q14 -3 81 -5zM381 410h166q11 0 33.5 0.5t33.5 1.5q38 2 58 19q12 12 16 22
q6 13 6 30q0 35 -13 52q-5 7 -12 12t-16.5 8.5t-17 5.5t-20 3l-18.5 1.5t-18 0.5h-15q-7 0 -19.5 0.5t-18.5 0.5h-143q-70 2 -100 -20q-26 -19 -26 -55q0 -26 9 -45q3 -6 6 -10t7 -7.5t6.5 -6t8.5 -4t8.5 -2.5t9.5 -2t9.5 -1t11.5 -0.5t11 -0.5q13 -1 37 -3z" />
    <glyph glyph-name="colon" unicode=":" horiz-adv-x="333" 
d="M79 500h213v-199h-213v199zM80 196h212v-196h-212v196z" />
    <glyph glyph-name="semicolon" unicode=";" horiz-adv-x="333" 
d="M144 0h-64v196h214v-248q0 -1 -1 -11t-3 -22t-5 -21q-19 -52 -78 -70q-37 -11 -156 -11v113q51 1 67 13t26 61zM80 500h212v-197h-212v197z" />
    <glyph glyph-name="less" unicode="&#x3c;" horiz-adv-x="667" 
d="M667 -3l-667 292v124l667 296v-139l-490 -219l490 -216v-138z" />
    <glyph glyph-name="equal" unicode="=" horiz-adv-x="667" 
d="M667 123h-667v128h667v-128zM667 333h-667v126h667v-126z" />
    <glyph glyph-name="greater" unicode="&#x3e;" horiz-adv-x="667" 
d="M0 -3v138l489 216l-489 219v139l667 -296v-124z" />
    <glyph glyph-name="question" unicode="?" horiz-adv-x="812" 
d="M471 248l-177 1q-5 33 0 69.5t26 62.5q6 8 13 14.5t16.5 11t15 7.5t17.5 6t16.5 4t19.5 3.5t18 3.5q14 2 69 11l39 9q34 9 46.5 23t12.5 35q-1 18 -9 34q-14 24 -69 30q-70 4 -104 3q-27 0 -79 -2q-40 -4 -56 -11q-21 -10 -29 -32.5t-7 -68.5l-187 1q2 40 4 60
q2 30 4.5 46.5t9 38t19.5 37t34 28.5q24 16 85 30q134 11 219 11q78 0 205 -11l24 -6q75 -19 103 -74q17 -35 17 -127q0 -106 -46 -144q-10 -9 -25.5 -16t-28.5 -11.5t-34 -9t-32.5 -6.5t-33.5 -5t-27 -4q-51 -7 -65 -17q-12 -9 -24 -35zM279 185h212v-185h-212v185z" />
    <glyph glyph-name="at" unicode="@" horiz-adv-x="896" 
d="M556 463l10 40h90l-33 -159q-28 -135 -28 -162q0 -31 20 -31q11 0 27 12q22 16 44 51q57 91 57 204q0 74 -33 125q-59 90 -191 90q-78 0 -153 -38q-99 -51 -157.5 -149t-58.5 -209q0 -128 81 -203q85 -79 223 -79q141 0 266 94q34 26 60 52l46 -62q-78 -70 -135 -102
q-110 -61 -234 -61q-73 0 -145.5 23.5t-126.5 67.5q-116 97 -116 271q0 195 133.5 335t327.5 140q116 0 196 -64q101 -81 101 -228q0 -25 -3 -49q-18 -156 -109 -246q-59 -59 -126 -59q-53 0 -77 34q-7 9 -14 34q-26 -29 -44 -42q-38 -26 -81 -26q-32 0 -65 15
q-74 42 -74 154q0 92 46 173q67 114 171 114q50 0 81 -30q16 -13 24 -30zM523 350q0 19 -6 37q-16 47 -61 47q-30 0 -50 -20q-32 -26 -50.5 -76t-18.5 -95q0 -55 31 -77q17 -10 33 -10q42 0 80 53q19 27 31 67.5t11 73.5z" />
    <glyph glyph-name="A" unicode="A" horiz-adv-x="1104" 
d="M393 706h281l398 -706h-245l-66 126h-455l-67 -126h-238zM536 550l-151 -275h297z" />
    <glyph glyph-name="B" unicode="B" horiz-adv-x="1062" 
d="M715 0h-644v706h652q42 0 67.5 -1.5t60.5 -12.5t59 -32q51 -41 51 -134q0 -97 -47 -134q-21 -17 -74 -32q68 -10 97 -32q26 -19 38.5 -50t12.5 -91q0 -79 -42 -127q-10 -14 -33 -30q-30 -21 -72.5 -26.5t-125.5 -3.5zM284 287v-128h423q25 4 38.5 11.5t20.5 26.5
q4 16 4 24q0 20 -13 39q-15 19 -33.5 23.5t-50.5 3.5h-389zM285 552v-124h368q21 -1 31.5 -0.5t24 6.5t22.5 18q13 16 13 37q0 20 -13 36q-9 12 -22 18t-22 7t-29 2h-373z" />
    <glyph glyph-name="C" unicode="C" horiz-adv-x="1042" 
d="M955 455l-211 1q0 37 -15 55q-16 20 -73 26q-82 4 -125 4q-65 0 -132 -3q-12 0 -34 -2q-68 -8 -84 -63q-8 -28 -8 -115v-52q2 -81 30 -106q26 -24 93 -31h259l7 1q7 0 15.5 1.5t18.5 4.5t19.5 8.5t15.5 12.5q14 16 18 70h215q0 -20 -2 -64q-2 -56 -13 -94t-45 -65
q-18 -15 -42.5 -24.5t-40 -12.5t-47.5 -8q-122 -8 -228 -8q-111 0 -249 5q-43 7 -66.5 11.5t-55.5 17.5t-53 33q-31 29 -42.5 61.5t-17.5 84.5q-8 98 -8 149q0 34 7 155q10 77 43 119q49 58 162 78q148 11 245 11q55 0 249 -7q33 -5 51 -9t44 -15.5t45 -28.5t30.5 -41
t16.5 -55.5t6 -51t2 -53.5z" />
    <glyph glyph-name="D" unicode="D" horiz-adv-x="1104" 
d="M74 706h658q28 0 57 -3q137 -12 187 -98q35 -59 39 -185v-114q0 -33 -1 -50q-4 -91 -27.5 -141t-67.5 -77q-36 -22 -72.5 -29t-92.5 -9h-680v706zM294 534v-364h360q34 0 51 3q25 4 42.5 14.5t26.5 23t14 33.5t6.5 37t1.5 43v88q-4 61 -30 88q-14 14 -35 21.5t-37 9.5
t-46 3h-354z" />
    <glyph glyph-name="E" unicode="E" horiz-adv-x="958" 
d="M73 706h789v-156h-574v-118h543v-148h-543v-124h574v-160h-789v706z" />
    <glyph glyph-name="F" unicode="F" horiz-adv-x="896" 
d="M75 706h766v-162h-548v-140h519v-161h-519v-243h-218v706z" />
    <glyph glyph-name="G" unicode="G" horiz-adv-x="1104" 
d="M1022 462h-221q-5 47 -21.5 61.5t-81.5 17.5h-303q-57 -2 -81 -22q-19 -15 -24.5 -41t-8.5 -85v-93q1 -5 1 -14q0 -64 32 -95q12 -11 31.5 -17.5t32.5 -8t42 -3.5h267q28 1 42.5 2.5t32.5 9.5t29 23q14 23 14 66h-297v138l517 -1q0 -118 -1 -142q0 -43 -4 -78
q-12 -125 -102 -163q-59 -25 -195 -25h-359q-51 0 -81 2t-72 14t-74 36q-16 13 -40 40q-14 21 -23 44.5t-13 58t-5 48.5t-1 59.5v47.5q-1 21 -1 64q0 53 5 90q18 146 128 192q35 15 76.5 19t132.5 6q14 0 42 0.5t42 0.5h173q103 2 168 -5q64 -6 99.5 -23t58.5 -45
q30 -37 37.5 -77t5.5 -102z" />
    <glyph glyph-name="H" unicode="H" horiz-adv-x="1104" 
d="M74 706h221v-258h487v258h218v-706h-219v275h-488v-275h-219v706z" />
    <glyph glyph-name="I" unicode="I" horiz-adv-x="396" 
d="M75 706h224v-706h-224v706z" />
    <glyph glyph-name="J" unicode="J" horiz-adv-x="875" 
d="M44 299h213v-36q1 -49 14 -67q22 -33 139 -33q19 0 59 2q42 7 51 11q42 18 42 79v451h219v-394l-5 -125q-4 -27 -8 -43t-13 -37t-23 -38q-20 -24 -51.5 -39.5t-54.5 -20t-69 -11.5q-114 -6 -171 -6q-48 0 -146 6q-35 6 -55 10.5t-46 17t-46 32.5q-33 34 -42 85t-7 156z
" />
    <glyph glyph-name="K" unicode="K" horiz-adv-x="1042" 
d="M74 706h220v-261h110l294 261h298q-84 -66 -124 -101l-122 -106l-165 -142l452 -357h-310l-321 268h-113v-268h-219v706z" />
    <glyph glyph-name="L" unicode="L" 
d="M72 706h221v-531h488v-175h-709v706z" />
    <glyph glyph-name="M" unicode="M" horiz-adv-x="1375" 
d="M73 706h349l256 -463l257 463h345v-706h-210v534l-309 -534h-173l-308 537v-537h-207v706z" />
    <glyph glyph-name="N" unicode="N" horiz-adv-x="1146" 
d="M74 706h346l229 -282l202 -262l-4 324v220h204v-706h-347l-247 306l-177 234v-540h-206v706z" />
    <glyph glyph-name="O" unicode="O" horiz-adv-x="1125" 
d="M53 301l7 207q1 11 5 33q18 91 87 131q40 24 113 34q155 9 259 9q122 0 307 -9q11 -1 33 -5q101 -17 145 -95q27 -49 32 -142q4 -101 2 -152q0 -15 -1 -31.5t-2.5 -36.5t-2.5 -32q-12 -91 -49 -136q-36 -44 -87.5 -59.5t-127.5 -21.5q-210 -3 -212 -3q-80 0 -242 4
q-42 3 -64.5 5.5t-55.5 12.5t-59 28q-30 21 -49 51t-26.5 69t-9.5 67t-2 72zM409 167h288q30 3 45.5 5.5t35 12.5t29.5 28q12 20 17 64v153q-2 27 -7 43q-12 38 -37.5 49.5t-76.5 15.5h-302q-61 -4 -88 -24q-16 -11 -23 -26q-7 -13 -12 -39q-3 -28 -5 -118q3 -99 22 -126
q13 -18 39.5 -26t74.5 -12z" />
    <glyph glyph-name="P" unicode="P" horiz-adv-x="979" 
d="M70 706h592q30 2 59 0q65 -2 99.5 -17.5t59.5 -44.5q20 -23 30.5 -50.5t13 -48.5t3.5 -58q2 -36 2 -53q0 -161 -72 -216q-54 -41 -198 -41h-366v-177h-223v706zM619 538h-327v-188h316q38 -1 58.5 6t33.5 33q12 26 12 52q0 51 -23 74q-16 17 -70 23z" />
    <glyph glyph-name="Q" unicode="Q" horiz-adv-x="1146" 
d="M1030 175l88 -54l-85 -145l-89 69q-34 -18 -47 -23q-63 -25 -231 -25q-158 0 -320 3q-101 2 -139 14q-46 13 -82 46q-34 33 -52 74q-11 25 -14 54q-6 41 -6 150q0 85 5 148q8 87 35 131q42 66 136 86q70 14 184 14q38 0 107 -2t90 -2q143 -2 185 -5q63 -3 105 -15t77 -48
q16 -16 28 -35q21 -34 29 -81.5t8 -131.5q0 -74 -12 -222zM834 393v32q-3 48 -31 79q-20 23 -44 31q-24 10 -107 11q-80 2 -119 2q-62 0 -125 -3q-66 -6 -94 -26q-27 -20 -36 -59q-9 -51 -9 -133v-14.5t3.5 -31t9.5 -42t19.5 -37t32.5 -27.5q7 -3 14 -5t17.5 -3t17 -1.5
t24 -1t27.5 -1.5q70 -5 126 -5q42 0 189 7l-239 139l97 142l228 -155q-1 34 -1 102z" />
    <glyph glyph-name="R" unicode="R" horiz-adv-x="1062" 
d="M73 706h641q38 1 71 1.5t67 -9t60 -30.5q22 -17 35 -40q29 -50 29 -141q0 -73 -14 -117q-8 -20 -17 -32q-16 -23 -45.5 -38t-51 -20.5t-57.5 -11.5q37 0 58.5 -1.5t48 -12t42.5 -31.5q12 -15 17.5 -33t6.5 -30.5t1 -36.5v-123h-219v95q0 36 -12 56q-16 23 -70 29h-370
v-180h-221v706zM295 537v-182h346q64 0 85 11q33 19 33 74q0 50 -19 73q-17 20 -80 24h-365z" />
    <glyph glyph-name="S" unicode="S" horiz-adv-x="1042" 
d="M54 232l221 -1q0 -29 5 -41q6 -17 23 -25t52 -11q91 -4 134 -5q23 0 145 2q45 0 60 6q17 6 29 21.5t12 32.5t-10 31q-4 6 -9.5 10t-9.5 6.5t-13.5 5t-14.5 3t-20 2.5l-22 3q-234 4 -311 9q-16 1 -49 3.5t-50 3.5q-5 1 -15.5 2.5t-15.5 2.5q-62 9 -97 47q-42 46 -42 139
q0 82 18 127q10 25 29 45q19 21 46.5 33.5t48.5 16t59 8.5q154 6 231 6q64 0 255 -9l39 -6q61 -8 102 -46q33 -30 41 -70t6 -100l-214 1q-10 40 -23.5 51t-56.5 16q-87 5 -157 5q-18 0 -38.5 -0.5t-45 -1.5t-38.5 -1q-52 -2 -69 -24q-12 -16 -12 -32q0 -19 12 -31
q9 -11 22 -17t21 -7.5t27 -2.5l424 -15q71 -7 105 -32q68 -49 68 -175q0 -98 -36 -149q-14 -19 -29 -30q-33 -24 -120 -38q-157 -9 -260 -9q-74 0 -283 11q-99 15 -135 54q-18 20 -27.5 55.5t-10.5 57.5t-1 62z" />
    <glyph glyph-name="T" unicode="T" horiz-adv-x="917" 
d="M24 706h852v-163h-318v-543h-222v542h-312v164z" />
    <glyph glyph-name="U" unicode="U" horiz-adv-x="1104" 
d="M78 706h217v-412q2 -64 20 -91q17 -24 50.5 -31.5t96.5 -6.5h208q58 8 78 25q25 23 29 90v426h218v-468q-2 -34 -5 -51q-15 -104 -91 -151q-53 -33 -162 -42q-22 0 -63 -1t-74 -1.5t-63 -0.5q-96 0 -231 7l-43 6q-106 19 -149 88q-27 43 -36 130v484z" />
    <glyph glyph-name="V" unicode="V" horiz-adv-x="1104" 
d="M242 706l288 -543l296 543h242l-398 -706h-287l-377 706h236z" />
    <glyph glyph-name="W" unicode="W" horiz-adv-x="1521" 
d="M434 176l181 530h267l173 -530l212 530h226q-25 -49 -29 -59q-28 -60 -41 -91l-100 -248l-131 -308h-288l-158 503l-166 -503h-289l-287 706h222l123 -319z" />
    <glyph glyph-name="X" unicode="X" horiz-adv-x="1125" 
d="M374 358l-332 348h284l229 -247l223 247h294l-339 -351l357 -355h-299l-237 255l-242 -255h-301z" />
    <glyph glyph-name="Y" unicode="Y" horiz-adv-x="1062" 
d="M281 706l237 -288l238 288h282l-408 -459v-247h-221v247l-401 459h273z" />
    <glyph glyph-name="Z" unicode="Z" horiz-adv-x="979" 
d="M601 552l-538 -5v159h844v-161l-238 -166q-230 -166 -236 -170l-69 -45l551 6v-170h-869l1 167l239 170l185 132q42 29 130 83z" />
    <glyph glyph-name="bracketleft" unicode="[" horiz-adv-x="417" 
d="M82 706h275v-135h-89v-428h89v-143h-275v706z" />
    <glyph glyph-name="backslash" unicode="\" horiz-adv-x="354" 
d="M230 -18l-228 724h128l228 -724h-128z" />
    <glyph glyph-name="bracketright" unicode="]" horiz-adv-x="417" 
d="M37 141h90v431h-89v134h274v-706h-275v141z" />
    <glyph glyph-name="asciicircum" unicode="^" horiz-adv-x="729" 
d="M615 311h-138l-110 231l-116 -231h-137l203 395h104z" />
    <glyph glyph-name="underscore" unicode="_" horiz-adv-x="500" 
d="M510 -240h-520v127h520v-127z" />
    <glyph glyph-name="grave" unicode="`" horiz-adv-x="313" 
d="M-61 707l244 -98l-21 -70l-261 49z" />
    <glyph glyph-name="a" unicode="a" horiz-adv-x="812" 
d="M539 273v40q-2 34 -10 50q-15 27 -88 27h-126q-28 -1 -37.5 -7t-18.5 -31l-184 1q4 41 10 59q10 25 37.5 48t73.5 34q40 9 179 14h105q7 0 22.5 -0.5t22.5 -0.5q122 -7 165 -57q24 -26 30.5 -56t6.5 -75v-319h-183l6 97q-21 -48 -35 -62q-46 -46 -171 -46q-21 0 -60.5 2
t-52.5 2q-79 2 -124 30q-54 35 -54 123q0 111 66 145q50 25 154 25h115q57 2 82.5 -5t68.5 -38zM341 107h63q89 3 112 16q24 18 24 38q-4 19 -13 30q-10 11 -25 16.5t-26 6t-46 1.5h-51q-13 -1 -37.5 -2.5t-36.5 -2.5q-49 -2 -62 -24q-6 -12 -6 -22q0 -21 13 -34
q12 -16 30 -19.5t61 -3.5z" />
    <glyph glyph-name="b" unicode="b" 
d="M63 706h189l1 -282q26 33 45 48.5t51 23.5q44 11 137 11q71 0 135 -13q70 -14 100 -49q48 -54 48 -172q0 -21 -2 -65t-4.5 -65.5t-15.5 -50.5t-38 -50q-23 -20 -48 -29q-12 -5 -26 -9t-23 -6t-28.5 -3.5t-23 -1.5t-28.5 -1h-25q-13 0 -41 -0.5t-41 -0.5q-108 0 -149 40
q-12 13 -27 41v-72h-186v706zM376 128h94q38 0 65 12q28 13 36 36.5t9 67.5v26q0 43 -16 62q-12 16 -37 24.5t-40 9.5t-45 2h-66q-49 -2 -74 -9t-36 -25q-4 -7 -7.5 -19t-5 -20.5t-2.5 -18.5l-1 -10v-48q7 -40 17 -56q12 -19 35.5 -25t73.5 -9z" />
    <glyph glyph-name="c" unicode="c" horiz-adv-x="812" 
d="M737 300h-187q-4 25 -13 35q-8 10 -25 18q-33 13 -105 13q-40 0 -73 -4q-40 -4 -56 -14q-39 -22 -39 -103q0 -74 40 -96q24 -15 112 -15q23 0 75 2q48 0 71 24q12 13 17 43l188 -1q-5 -95 -29 -130q-33 -48 -108 -66q-71 -16 -192 -16q-29 0 -85 2q-135 7 -189 37
q-49 28 -70 83q-20 52 -20 143q0 14 1.5 30.5t7 53t22.5 70t43 52.5q66 48 289 48q73 0 140 -7q62 -7 102 -25t63 -62q20 -38 20 -115z" />
    <glyph glyph-name="d" unicode="d" 
d="M565 422v284h186v-706h-181v93q-22 -42 -43 -62q-47 -42 -169 -42q-45 0 -108 5q-86 6 -122 28q-80 47 -80 193l3 90q0 1 0.5 14t1.5 24.5t4 28t8 28.5q12 30 41 55q37 30 80 40t105 13q40 2 60 2q114 0 169 -40q17 -13 45 -48zM236 264v-28q0 -68 32 -89q8 -5 18 -9
q22 -7 95 -10h36q81 2 106 13q44 19 44 90v25q-2 69 -24 89q-23 21 -102 24h-104q-25 0 -43 -5t-30 -14t-17.5 -23.5t-7.5 -27t-3 -35.5z" />
    <glyph glyph-name="e" unicode="e" horiz-adv-x="792" 
d="M711 211h-472q-2 -35 4 -54.5t29 -33.5q14 -8 32 -12t26.5 -5t36 -0.5t28.5 0.5q73 0 96 8q20 7 26 15q8 10 12 32l182 -1q0 -22 -2 -33q-5 -48 -43 -82q-27 -24 -66 -36t-67 -14t-79 -3h-109l-57 3q-115 8 -171 53q-25 20 -40 50q-28 53 -28 160q0 6 0.5 19t0.5 19
q6 111 68 159q69 53 268 53q88 0 143 -8q49 -6 76 -17.5t49 -32.5q25 -22 39 -53q10 -21 14 -46.5t4 -58.5v-81zM239 310l291 1q-4 46 -19 60q-24 21 -114 21q-44 0 -80 -4q-44 -3 -64 -25q-16 -17 -14 -53z" />
    <glyph glyph-name="f" unicode="f" horiz-adv-x="458" 
d="M4 497h98v45q2 24 3 35q6 56 41 93q26 29 69.5 39.5t125.5 12.5h103v-123h-47q-66 -3 -88 -22q-20 -17 -20 -79h165v-126h-166v-372h-187v371h-97v126z" />
    <glyph glyph-name="g" unicode="g" horiz-adv-x="875" 
d="M591 405v95h188v-480q0 -20 -2 -58q-3 -50 -16.5 -85t-46.5 -62q-73 -63 -266 -63q-17 0 -51 0.5t-52 0.5q-56 1 -81.5 2.5t-67 13.5t-70.5 37q-30 24 -44 58q-13 31 -13 76h193q7 -20 14 -29.5t23 -15.5q33 -10 97 -10q66 0 85 2q70 8 93 47q9 15 9 29q6 40 2 131
q-14 -36 -28 -52.5t-48 -29.5q-53 -21 -177 -21q-45 0 -73.5 2t-66.5 12t-68 30q-27 20 -42 39q-35 48 -35 186q0 39 5 83q3 24 8.5 41.5t19.5 41.5t41.5 42t68.5 29q69 16 157 16q60 0 120 -10q56 -10 81 -31q19 -16 43 -67zM414 367h-25q-79 0 -107 -12q-42 -20 -42 -88
v-32q8 -61 26 -78q24 -21 103 -24h64q40 2 64 4q52 4 70 30q17 24 17 72v26q2 35 -8 56q-16 29 -48 38q-15 4 -114 8z" />
    <glyph glyph-name="h" unicode="h" 
d="M64 706h187v-294q15 31 28 46t38 27q51 24 174 24q13 0 39 -2q95 -4 157 -55q32 -28 43 -53q17 -34 21 -117v-282h-187v251q0 87 -52 105q-23 8 -98 8q-82 0 -114 -16q-16 -11 -26 -22q-21 -27 -23 -97v-228h-187v705z" />
    <glyph glyph-name="i" unicode="i" horiz-adv-x="333" 
d="M63 500h185v-500h-185v500zM64 706h185v-137h-185v137z" />
    <glyph glyph-name="j" unicode="j" horiz-adv-x="333" 
d="M62 16v484h188v-539q-2 -27 -4 -40t-10.5 -30t-25.5 -31q-48 -41 -142 -41q-16 0 -91 5l1 122q55 -5 71 16q9 8 11 21q2 9 2 33zM65 709h187v-138h-187v138z" />
    <glyph glyph-name="k" unicode="k" horiz-adv-x="750" 
d="M65 706h185v-371h39l182 165h255l-64 -48l-97 -86l-112 -101q54 -38 120 -101l42 -39q58 -53 144 -125h-256l-202 202h-51v-202h-185v706z" />
    <glyph glyph-name="l" unicode="l" horiz-adv-x="333" 
d="M64 706h184v-706h-184v706z" />
    <glyph glyph-name="m" unicode="m" horiz-adv-x="1271" 
d="M250 500v-78q15 20 23 29.5t22.5 21t30.5 17.5q21 8 55.5 12.5t58.5 5.5h24q51 0 87.5 -6.5t62.5 -23t38.5 -28.5t36.5 -39q20 35 33 48q52 50 197 50q48 0 89 -10q104 -25 141 -104q17 -36 22 -124v-271h-185v252q0 45 -10 67q-20 44 -117 44q-80 0 -110 -23
q-21 -15 -27 -37t-8 -59v-244h-188v268q-5 63 -27 78q-29 18 -101 18q-108 0 -135 -49q-11 -20 -13 -57v-258h-183v500h183z" />
    <glyph glyph-name="n" unicode="n" 
d="M67 500h183v-88q6 11 14 23q19 29 49 45q53 29 187 29q114 0 180 -50q31 -23 46 -53q18 -35 23 -115v-291h-185v253q0 33 -3 46q-13 50 -70 58q-36 6 -100 6q-10 0 -42 -4q-68 -16 -88 -61q-10 -22 -10 -80v-218h-184v500z" />
    <glyph glyph-name="o" unicode="o" 
d="M54 225q0 49 3 100q4 46 13.5 75t35.5 52q19 16 43.5 26t42 13.5t48.5 8.5q116 8 173 8q56 0 168 -6q53 -9 86.5 -20.5t56.5 -39.5q34 -40 40 -126q2 -36 2 -53q0 -42 -5 -97q-5 -50 -20 -78q-11 -23 -30 -39q-35 -32 -117 -49q-128 -9 -170 -9q-46 0 -89 3q-58 2 -87 4
q-2 0 -16 2t-22 4q-75 15 -111 55q-20 21 -30 52t-12 53.5t-3 60.5zM348 134l36 -3q42 -2 64 -2q47 0 80 11q28 10 40 31q6 14 11 69q2 22 2 33q0 33 -17 59q-7 10 -15 17t-14.5 10.5t-18 5.5t-17.5 2.5t-21 1t-21 0.5q-32 3 -61 3q-33 0 -70 -5q-19 -3 -28 -5t-20.5 -8.5
t-19.5 -17.5q-18 -27 -18 -92q0 -54 15 -77q7 -11 19 -19q17 -11 74 -14z" />
    <glyph glyph-name="p" unicode="p" 
d="M62 500h187v-83q24 36 29 42q31 37 95 45q32 6 103 6t130 -11q76 -15 113 -50q20 -20 29 -38q21 -42 21 -154q0 -61 -3 -93q-6 -58 -23 -85q-6 -11 -27 -32q-26 -22 -62.5 -35t-64.5 -16t-70 -4q-9 0 -26.5 -0.5t-26.5 -0.5q-114 0 -168 37q-15 11 -45 45v-295h-191v722z
M250 263q-4 -79 28 -110q11 -11 33 -16q36 -9 112 -9q95 0 128 24q30 21 30 78q0 6 -0.5 18.5t-0.5 19.5q-1 43 -12 63q-25 41 -118 41q-30 0 -45 -1q-36 0 -54 -2q-46 -2 -67 -16q-30 -21 -34 -90z" />
    <glyph glyph-name="q" unicode="q" 
d="M574 411v89h179v-722h-188v302q-18 -31 -38 -47q-50 -43 -174 -43q-41 0 -121 8q-114 15 -151 73q-30 44 -30 165q0 129 20 173q11 26 34 45q21 18 47.5 28.5t46 14t53.5 7.5l146 6q10 -1 32 -3q84 -6 121 -54q9 -12 23 -42zM238 250q0 -59 14 -83t66 -32q40 -7 106 -7
q97 0 125 33q12 13 15 39l1 13q1 13 2 30t1 28q0 59 -37 85q-13 9 -37 13q-40 5 -96 5q-12 0 -75 -5q-19 -3 -28 -5t-20.5 -8.5t-19.5 -17.5q-19 -27 -17 -88z" />
    <glyph glyph-name="r" unicode="r" horiz-adv-x="646" 
d="M63 500h178v-104q23 58 59 82q46 29 152 29q86 0 135 -44q24 -21 33 -48q12 -30 14 -137h-172q-2 26 -5 38t-13 23.5t-29 17.5q-28 8 -48 8q-54 0 -88 -31q-24 -21 -30 -79v-255h-186v500z" />
    <glyph glyph-name="s" unicode="s" horiz-adv-x="812" 
d="M413 106h65q28 0 43 7q33 14 33 38q0 19 -23 30q-12 5 -40.5 7t-65.5 2h-39q-88 2 -131 4q-95 2 -143 36q-26 18 -38 44q-13 26 -13 66q0 29 6 55q15 74 93 98q35 11 144 14q62 2 93 2q129 0 190 -9q73 -13 103 -44q20 -21 26 -43.5t7 -58.5l-192 1q-4 14 -9 20.5
t-18 10.5q-11 3 -66 7q-34 2 -51 2q-9 0 -28 -0.5t-29 -0.5q-31 0 -40 -3q-13 -5 -23.5 -15.5t-10.5 -21.5q1 -14 29 -28q13 -4 165 -8q15 0 44.5 -1t44.5 -1q38 -1 56.5 -2t47.5 -9t50 -23q28 -20 40 -46q13 -28 13 -68q0 -68 -24 -106q-35 -58 -151 -68q-38 -3 -114 -3
q-79 0 -158 3q-72 0 -121 10q-80 17 -109 73q-14 27 -16 87l195 -1q2 -16 5 -23q10 -21 40 -27q30 -7 120 -7z" />
    <glyph glyph-name="t" unicode="t" horiz-adv-x="646" 
d="M11 500h94v113h186v-113h304v-129h-304v-183q0 -26 11 -40q21 -25 75 -25q53 0 71 32q6 12 6 31q0 5 -0.5 12.5t-1 13t-0.5 6.5h167q0 -37 -1 -56q-8 -99 -73 -138q-54 -34 -170 -34q-23 0 -71 2q-37 2 -58.5 4.5t-50 13.5t-48.5 31q-25 25 -34 57q-7 23 -7 61v209h-95
v132z" />
    <glyph glyph-name="u" unicode="u" 
d="M67 500h185v-265q0 -43 16 -64q17 -24 57 -31q44 -4 87 -4q80 0 115 25q13 10 22 25q9 16 15 62v252h185v-500h-184v87q-16 -29 -28.5 -43.5t-37.5 -26.5q-49 -25 -170 -25q-132 0 -190 41q-29 20 -47 53q-17 32 -25 112v302z" />
    <glyph glyph-name="v" unicode="v" horiz-adv-x="750" 
d="M207 500l160 -357l157 357h212l-249 -500h-244l-244 500h208z" />
    <glyph glyph-name="w" unicode="w" horiz-adv-x="1104" 
d="M197 500l114 -364l136 364h174l135 -360l118 360h196l-188 -500h-248l-100 296l-98 -296h-247l-187 500h195z" />
    <glyph glyph-name="x" unicode="x" horiz-adv-x="792" 
d="M235 262l-201 238h234l97 -137l103 137h233l-203 -233l224 -267h-232l-123 170l-127 -170h-223z" />
    <glyph glyph-name="y" unicode="y" horiz-adv-x="729" 
d="M203 500l144 -364l160 364h200l-19 -38l-272 -587q-21 -40 -35 -53q-47 -47 -154 -47q-29 0 -85 4v128q39 0 59 1q39 2 58 24q13 17 37 68h-71l-223 500h201z" />
    <glyph glyph-name="z" unicode="z" horiz-adv-x="708" 
d="M31 132l336 241h-313v127h578v-147l-317 -223h328v-130h-612v132z" />
    <glyph glyph-name="braceleft" unicode="{" horiz-adv-x="354" 
d="M112 414v177q3 106 77 139q8 4 16 6.5l14.5 4.5t18 3l17 1.5t21 1t22 1t27 0.5h29.5v-8q-16 -3 -35 -9q-52 -15 -67 -69q-5 -18 -7 -90v-95v-32.5t-0.5 -29.5t-1 -24t-1.5 -23.5t-2.5 -18.5t-4 -19t-6.5 -15.5t-9 -16.5q-23 -33 -80 -49q49 -13 73 -41q16 -18 23.5 -44.5
t8.5 -49t1 -82.5v-107v-16.5v-18.5t0.5 -16t2 -18t3.5 -15.5t5.5 -17.5t8.5 -15l9.5 -13t11.5 -10.5t10.5 -7.5t13.5 -6.5t12.5 -4.5t15.5 -4.5t15 -4.5v-7h-46q-34 1 -52.5 2.5t-46.5 9.5t-48 23q-7 6 -13.5 13t-11 13t-8.5 16t-6 15.5t-4 17.5t-3 16.5t-1.5 18.5t-1 17.5
t-0.5 18.5v17v126v23v24.5t-1 21.5t-3.5 23.5t-7.5 20t-12 21.5q-11 17 -29 27q-12 8 -25 11v7q19 5 32 13q23 15 33.5 45t11.5 47t1 56z" />
    <glyph glyph-name="bar" unicode="|" horiz-adv-x="229" 
d="M178 -250h-127v998h127v-998z" />
    <glyph glyph-name="braceright" unicode="}" horiz-adv-x="354" 
d="M242 83v-175q-4 -109 -80 -142q-19 -8 -44 -11.5t-43.5 -4t-74.5 -0.5v7q65 14 88 47q4 5 6.5 9.5t5 11t3.5 10t2.5 11.5t2 11.5t0.5 14.5t0.5 15t0.5 18.5v20.5v95q0 109 8 139q6 22 19 40q24 34 78 48q-48 13 -72 41q-17 19 -24.5 45t-8.5 49t-1 82v108v15v16.5
t-0.5 15t-1.5 16.5t-2.5 15t-4 16t-6 13.5t-8.5 14.5q-10 14 -26 23.5t-25 12l-34 9.5v8q7 0 22.5 -0.5t23.5 -0.5q101 0 147 -34q7 -6 13.5 -13t11 -13.5t8.5 -16.5t6 -15.5t4 -17.5t3 -16.5t1.5 -18.5t1 -17t0.5 -18v-17v-127v-22.5v-24.5t1 -21.5t3.5 -24t7.5 -20
t12 -21.5q10 -15 29 -27q10 -6 25 -10v-8q-18 -3 -32 -13q-22 -14 -33 -44t-12 -48.5t-1 -55.5z" />
    <glyph glyph-name="asciitilde" unicode="~" horiz-adv-x="729" 
d="M366 230l-31 15q-50 23 -73 23q-22 -2 -37 -8q-10 -5 -21.5 -15t-18 -17l-27.5 -31l-55 104q38 52 74 72q38 22 82 22q41 0 103 -31l36 -16q44 -22 76 -22q47 0 100 61l52 -105q-20 -22 -45 -41q-59 -42 -111 -42q-40 0 -104 31z" />
    <glyph glyph-name="exclamdown" unicode="&#xa1;" horiz-adv-x="333" 
d="M49 706h211v-194h-211v194zM61 420h191l8 -420h-208z" />
    <glyph glyph-name="sterling" unicode="&#xa3;" horiz-adv-x="979" 
d="M1 391h107q2 156 17 203q21 64 85 91q67 29 240 29h165q98 -2 143 -9q60 -10 89.5 -28.5t45.5 -48.5q13 -24 19 -51.5t6 -52.5t-1 -53h-204q-2 39 -15 57q-14 19 -53 27q-14 2 -37.5 3t-31.5 2h-120q-98 -3 -122 -31q-11 -16 -13 -37q-3 -18 -3 -100h300v-122l-294 -1
q-6 -37 -15 -56q-9 -21 -26.5 -32.5t-62.5 -25.5h707v-155h-896l1 160q37 0 58 22q20 22 22 88h-111v121z" />
    <glyph glyph-name="currency" unicode="&#xa4;" horiz-adv-x="667" 
d="M579 187l81 -82l-96 -95l-81 82q-73 -42 -150 -42q-82 0 -151 44l-81 -82l-95 95l82 82q-14 21 -18 29q-25 51 -25 120q0 84 42 152l-80 80l95 95l80 -80q9 6 27 16q57 27 125 27q80 0 150 -43l81 81l96 -96l-81 -80q2 -3 4 -6.5t3.5 -6.5l3.5 -7t4 -7q27 -56 27 -125
q0 -78 -43 -151zM497 340q0 38 -15 70q-19 43 -60 69t-89 26q-26 0 -54 -10q-51 -18 -80 -59.5t-29 -96.5q0 -37 12 -65q19 -46 61.5 -73t91.5 -27q35 0 70 16q43 21 67.5 61t24.5 89z" />
    <glyph glyph-name="brokenbar" unicode="&#xa6;" horiz-adv-x="229" 
d="M51 190h127v-381h-127v381zM51 308v381h127v-381h-127z" />
    <glyph glyph-name="section" unicode="&#xa7;" horiz-adv-x="562" 
d="M503 562h-147q-6 32 -16 41q-13 10 -63 12h-39q-19 -2 -26 -12q0 -1 -1.5 -3t-2 -4t-0.5 -5q1 -12 33 -22l201 -59q41 -14 61.5 -29t30.5 -48q7 -25 7 -52q0 -20 -5 -40q-7 -29 -23.5 -44.5t-50.5 -35.5q30 -24 40.5 -41.5t10.5 -50.5q0 -81 -36 -128q-20 -24 -42 -34
q-19 -9 -71 -15q-62 -2 -110 1q-11 0 -22.5 1t-26 2.5t-22.5 2.5q-36 5 -58 15q-43 19 -55 51.5t-14 95.5h141q1 -14 2 -20.5t6 -13.5t15 -11q11 -5 23 -7t29 -2.5t25 -1.5q18 -2 27 -2q21 0 30 15q6 6 6 17q0 13 -32 19l-186 52q-44 15 -67 31t-36 50q-11 37 -11 64
q0 26 8 47q6 16 17.5 28.5t21 19t30.5 18.5q-15 16 -23 29q-17 30 -17 86q0 48 19.5 78.5t42.5 43.5q21 10 68 14q42 3 85 3q27 0 85 -4q65 -6 94 -26q26 -20 34 -49t10 -77zM194 350l186 -55q19 12 27 26q4 12 4 17q0 18 -41 36l-193 57q-26 -20 -26 -42q0 -14 11 -22
t32 -17z" />
    <glyph glyph-name="dieresis" unicode="&#xa8;" horiz-adv-x="313" 
d="M-137 650h146v-108h-146v108zM75 651h149v-108h-149v108z" />
    <glyph glyph-name="copyright" unicode="&#xa9;" 
d="M773 351q0 -129 -85 -229q-43 -51 -102 -81.5t-96.5 -37t-72.5 -6.5q-122 0 -218 73q-138 108 -138 284q0 130 81 228q109 127 276 127q85 0 160 -37t126 -106q71 -95 69 -215zM741 352q0 109 -63 195q-15 20 -34.5 39t-51.5 41.5t-77.5 36t-96.5 13.5q-108 0 -192 -62
q-20 -15 -39.5 -34.5t-42.5 -52t-37 -78t-14 -97.5q0 -65 24 -123q37 -91 119.5 -146t181.5 -55q54 0 109 19q97 34 155 117.5t59 186.5zM620 519l-87 -84q-50 50 -110 49q-34 0 -60 -12q-32 -16 -48.5 -48t-16.5 -70q1 -59 35.5 -94t92.5 -35q62 1 107 46l87 -81
q-78 -84 -195 -84q-61 0 -109 20q-68 28 -104.5 90t-36.5 138q0 61 21 108q10 23 25.5 44t42.5 45t68.5 38.5t92.5 14.5q115 0 195 -85z" />
    <glyph glyph-name="guillemotleft" unicode="&#xab;" horiz-adv-x="708" 
d="M186 532l147 -83l-113 -191l108 -186l-141 -79l-158 266zM507 534l145 -82l-113 -193l107 -187l-144 -80l-156 268z" />
    <glyph glyph-name="logicalnot" unicode="&#xac;" horiz-adv-x="667" 
d="M539 227h-539v127h667v-354h-128v227z" />
    <glyph glyph-name="registered" unicode="&#xae;" 
d="M612 128l-126 1q-6 14 -11 30.5t-6.5 27t-5 31.5t-4.5 30q-9 49 -21 59q-13 11 -59 13h-19v-192h-110v458h164q27 0 40 -1q52 -2 78.5 -13.5t44.5 -34.5q25 -32 25 -74q0 -13 -3 -25.5t-6.5 -21t-10.5 -17t-11.5 -13.5t-13.5 -11t-12.5 -8l-12.5 -7l-9 -4q10 -6 15 -10
q28 -21 34 -71q0 -1 3.5 -20l7 -38t11.5 -44.5t18 -44.5zM360 407h49q38 0 53 3.5t24 20.5q7 11 7 26q0 12 -6 23q-13 22 -58 22h-69v-95zM773 351q0 -129 -85 -229q-43 -51 -102 -81.5t-96.5 -37t-72.5 -6.5q-122 0 -218 73q-138 108 -138 284q0 130 81 228
q109 127 276 127q85 0 160 -37t126 -106q71 -95 69 -215zM741 352q0 109 -63 195q-15 20 -34.5 39t-51.5 41.5t-77.5 36t-96.5 13.5q-108 0 -192 -62q-20 -15 -39.5 -34.5t-42.5 -52t-37 -78t-14 -97.5q0 -65 24 -123q37 -91 119.5 -146t181.5 -55q54 0 109 19
q97 34 155 117.5t59 186.5z" />
    <glyph glyph-name="degree" unicode="&#xb0;" horiz-adv-x="354" 
d="M177 745q39 0 71 -15q47 -20 74 -63t27 -94q0 -41 -15 -71q-20 -46 -63 -74t-94 -28q-63 0 -112 42q-60 51 -60 131q0 72 50 122t122 50zM177 630q-23 0 -39 -16t-16 -39t16.5 -39.5t39.5 -16.5t39 16.5t16 39.5t-16.5 39t-39.5 16z" />
    <glyph glyph-name="plusminus" unicode="&#xb1;" horiz-adv-x="667" 
d="M398 162h-128v209h-228v127h228v208h128v-208h227v-127h-227v-209zM625 0h-583v127h583v-127z" />
    <glyph glyph-name="acute" unicode="&#xb4;" horiz-adv-x="313" 
d="M148 714l38 -123l-264 -48l-19 72z" />
    <glyph glyph-name="mu" unicode="&#xb5;" horiz-adv-x="562" 
d="M501 144l35 2q15 -42 15 -73q0 -53 -34 -73q-16 -11 -38 -11q-15 0 -33 7q-42 16 -55 68q-55 -79 -149 -79q-65 0 -107 49q-6 -82 25 -146q10 -20 24.5 -41.5t21 -34.5t6.5 -27q0 -10 -4 -20q-15 -27 -46 -27q-28 0 -50 22q-42 48 -42 193q0 102 12 174q-23 115 -23 248
q0 56 25 80q15 15 35 15q34 0 51 -46q3 -21 3 -32q0 -48 -31 -271q32 -75 90 -75q29 0 55 23q34 29 48 82t14 148q0 2 -0.5 31.5t0 45t3.5 38t10 33.5q14 23 43 23q19 0 36 -13q26 -21 26 -91q0 -40 -5 -88q-10 -103 -45 -170q11 -48 46 -48q39 0 39 61q0 15 -1 23z" />
    <glyph glyph-name="paragraph" unicode="&#xb6;" horiz-adv-x="667" 
d="M558 706v-78h-36v-795h-84v795h-117v-795h-85v459q-41 11 -66 26q-88 57 -88 173q0 47 14 84.5t36 60.5t42.5 36.5t41.5 20.5q37 13 92 13h250z" />
    <glyph glyph-name="periodcentered" unicode="&#xb7;" horiz-adv-x="187" 
d="M91 201q-36 1 -61.5 26.5t-24.5 61.5q0 18 7 34q8 20 28.5 38t55.5 18q38 0 62.5 -25.5t24.5 -63.5q0 -21 -9 -39q-8 -17 -29.5 -34t-53.5 -16z" />
    <glyph glyph-name="cedilla" unicode="&#xb8;" horiz-adv-x="313" 
d="M49 -15l64 -105l-190 -45l-38 67z" />
    <glyph glyph-name="guillemotright" unicode="&#xbb;" horiz-adv-x="708" 
d="M138 267l-104 188l139 82l159 -271l-162 -275l-143 83zM456 266l-107 187l141 78l160 -264l-159 -275l-145 83z" />
    <glyph glyph-name="questiondown" unicode="&#xbf;" horiz-adv-x="812" 
d="M340 463h186v-41q0 -6 -0.5 -18.5t-1.5 -18.5q-2 -15 -4.5 -24.5t-14.5 -25.5t-32 -28q-19 -12 -42.5 -19.5t-38 -10t-48 -6.5t-43.5 -6q-26 -4 -41.5 -9t-29.5 -19.5t-14 -37.5q0 -16 8 -32q6 -12 18 -18.5t20 -8t29 -4.5l149 -4q84 5 102 16q27 17 29 100h185
q-2 -93 -12 -135t-43 -69q-17 -14 -40 -23.5t-38 -12.5t-46 -8q-142 -9 -189 -9q-46 0 -186 9q-22 4 -34 6q-89 18 -117 75q-18 36 -18 116q0 65 9.5 99.5t32.5 56.5q26 24 79 36l121 24q18 3 33 7q18 5 23 13q3 4 5 10.5t3 12.5zM328 706h210v-178h-210v178z" />
    <glyph glyph-name="Agrave" unicode="&#xc0;" horiz-adv-x="1104" 
d="M393 706h281l398 -706h-245l-66 126h-455l-67 -126h-238zM536 550l-151 -275h297zM408 954l284 -114l-26 -87l-303 55z" />
    <glyph glyph-name="Aacute" unicode="&#xc1;" horiz-adv-x="1104" 
d="M393 706h281l398 -706h-245l-66 126h-455l-67 -126h-238zM536 550l-151 -275h297zM680 955l40 -148l-303 -53l-23 85z" />
    <glyph glyph-name="Acircumflex" unicode="&#xc2;" horiz-adv-x="1104" 
d="M393 706h281l398 -706h-245l-66 126h-455l-67 -126h-238zM536 550l-151 -275h297zM540 940l265 -125l-29 -66l-31 5l-178 42l-5 1q-5 1 -12 1.5t-11 0.5q-7 0 -27 -3l-167 -38l-38 -6l-28 65z" />
    <glyph glyph-name="Atilde" unicode="&#xc3;" horiz-adv-x="1104" 
d="M393 706h281l398 -706h-245l-66 126h-455l-67 -126h-238zM536 550l-151 -275h297zM709 942h97q-1 -6 -3.5 -17.5t-4.5 -17.5q-18 -82 -78 -116q-35 -19 -76 -19q-17 0 -61 8l-138 37q-26 6 -41 6q-35 0 -49 -24q-6 -11 -6 -27l-104 1q9 50 22 80.5t44 56.5q26 19 47 26
q25 9 58 9q45 0 126 -27q69 -23 102 -23q39 0 56 25q5 8 9 22z" />
    <glyph glyph-name="Adieresis" unicode="&#xc4;" horiz-adv-x="1104" 
d="M393 706h281l398 -706h-245l-66 126h-455l-67 -126h-238zM536 550l-151 -275h297zM291 896h193v-126h-193v126zM591 896h191v-126h-191v126z" />
    <glyph glyph-name="Aring" unicode="&#xc5;" horiz-adv-x="1104" 
d="M393 706h281l398 -706h-245l-66 126h-455l-67 -126h-238zM536 550l-151 -275h297zM341 871q5 21 24 40q40 41 120 41q10 0 28 -0.5t27 -0.5q40 0 60 -1q28 -1 41 -3t32.5 -10.5t33.5 -24.5q26 -33 26 -69q0 -20 -11 -42q-20 -38 -82 -49q-49 -7 -122 -7q-101 0 -141 26
q-39 26 -39 77q0 8 3 23zM491 817h96q22 0 29 2q15 4 23 13.5t7 16.5q0 8 -10 18q-20 16 -62 13h-96q-20 0 -30 -5q-21 -8 -21 -28q0 -8 8 -16q16 -14 56 -14z" />
    <glyph glyph-name="AE" unicode="&#xc6;" horiz-adv-x="1583" 
d="M499 706h1001v-159h-551v-116h517v-147h-520v-124h559v-160h-763v130h-393l-89 -130h-248zM623 548l-181 -274h301v274h-120z" />
    <glyph glyph-name="Ccedilla" unicode="&#xc7;" horiz-adv-x="1042" 
d="M955 455l-211 1q0 37 -15 55q-16 20 -73 26q-82 4 -125 4q-65 0 -132 -3q-12 0 -34 -2q-68 -8 -84 -63q-8 -28 -8 -115v-52q2 -81 30 -106q26 -24 93 -31h259l7 1q7 0 15.5 1.5t18.5 4.5t19.5 8.5t15.5 12.5q14 16 18 70h215q0 -20 -2 -64q-2 -56 -13 -94t-45 -65
q-18 -15 -42.5 -24.5t-40 -12.5t-47.5 -8q-122 -8 -228 -8q-111 0 -249 5q-43 7 -66.5 11.5t-55.5 17.5t-53 33q-31 29 -42.5 61.5t-17.5 84.5q-8 98 -8 149q0 34 7 155q10 77 43 119q49 58 162 78q148 11 245 11q55 0 249 -7q33 -5 51 -9t44 -15.5t45 -28.5t30.5 -41
t16.5 -55.5t6 -51t2 -53.5zM518 -15l64 -105l-190 -45l-39 67z" />
    <glyph glyph-name="Egrave" unicode="&#xc8;" horiz-adv-x="958" 
d="M73 706h789v-156h-574v-118h543v-148h-543v-124h574v-160h-789v706zM336 954l283 -114l-26 -87l-302 55z" />
    <glyph glyph-name="Eacute" unicode="&#xc9;" horiz-adv-x="958" 
d="M73 706h789v-156h-574v-118h543v-148h-543v-124h574v-160h-789v706zM607 955l40 -148l-303 -53l-23 85z" />
    <glyph glyph-name="Ecircumflex" unicode="&#xca;" horiz-adv-x="958" 
d="M73 706h789v-156h-574v-118h543v-148h-543v-124h574v-160h-789v706zM467 940l265 -125l-29 -66l-31 5l-178 42l-5 1q-5 1 -12 1.5t-11 0.5q-7 0 -27 -3l-167 -38l-38 -6l-28 65z" />
    <glyph glyph-name="Edieresis" unicode="&#xcb;" horiz-adv-x="958" 
d="M73 706h789v-156h-574v-118h543v-148h-543v-124h574v-160h-789v706zM221 899h193v-125h-193v125zM519 899h195v-125h-195v125z" />
    <glyph glyph-name="Igrave" unicode="&#xcc;" horiz-adv-x="396" 
d="M75 706h224v-706h-224v706zM54 954l284 -114l-26 -87l-303 55z" />
    <glyph glyph-name="Iacute" unicode="&#xcd;" horiz-adv-x="396" 
d="M75 706h224v-706h-224v706zM326 955l40 -148l-303 -53l-23 85z" />
    <glyph glyph-name="Icircumflex" unicode="&#xce;" horiz-adv-x="396" 
d="M75 706h224v-706h-224v706zM186 940l264 -125l-28 -66l-31 5l-178 42l-5 1q-6 1 -12.5 1.5t-10.5 0.5q-7 0 -27 -3l-167 -38l-38 -6l-28 65z" />
    <glyph glyph-name="Idieresis" unicode="&#xcf;" horiz-adv-x="396" 
d="M75 706h224v-706h-224v706zM-61 899h194v-125h-194v125zM238 899h194v-125h-194v125z" />
    <glyph glyph-name="Ntilde" unicode="&#xd1;" horiz-adv-x="1146" 
d="M74 706h346l229 -282l202 -262l-4 324v220h204v-706h-347l-247 306l-177 234v-540h-206v706zM730 942h97q-2 -6 -4.5 -17.5t-3.5 -17.5q-24 -85 -79 -116q-33 -19 -75 -19q-17 0 -61 8l-138 37q-26 6 -41 6q-35 0 -49 -24q-6 -11 -6 -27l-104 1q9 50 22 80.5t44 56.5
q26 19 47 26q25 9 58 9q45 0 126 -27q69 -23 102 -23q39 0 56 25q5 8 9 22z" />
    <glyph glyph-name="Ograve" unicode="&#xd2;" horiz-adv-x="1125" 
d="M53 301l7 207q1 11 5 33q18 91 87 131q40 24 113 34q155 9 259 9q122 0 307 -9q11 -1 33 -5q101 -17 145 -95q27 -49 32 -142q4 -101 2 -152q0 -15 -1 -31.5t-2.5 -36.5t-2.5 -32q-12 -91 -49 -136q-36 -44 -87.5 -59.5t-127.5 -21.5q-210 -3 -212 -3q-80 0 -242 4
q-42 3 -64.5 5.5t-55.5 12.5t-59 28q-30 21 -49 51t-26.5 69t-9.5 67t-2 72zM409 167h288q30 3 45.5 5.5t35 12.5t29.5 28q12 20 17 64v153q-2 27 -7 43q-12 38 -37.5 49.5t-76.5 15.5h-302q-61 -4 -88 -24q-16 -11 -23 -26q-7 -13 -12 -39q-3 -28 -5 -118q3 -99 22 -126
q13 -18 39.5 -26t74.5 -12zM419 954l284 -114l-26 -87l-303 55z" />
    <glyph glyph-name="Oacute" unicode="&#xd3;" horiz-adv-x="1125" 
d="M53 301l7 207q1 11 5 33q18 91 87 131q40 24 113 34q155 9 259 9q122 0 307 -9q11 -1 33 -5q101 -17 145 -95q27 -49 32 -142q4 -101 2 -152q0 -15 -1 -31.5t-2.5 -36.5t-2.5 -32q-12 -91 -49 -136q-36 -44 -87.5 -59.5t-127.5 -21.5q-210 -3 -212 -3q-80 0 -242 4
q-42 3 -64.5 5.5t-55.5 12.5t-59 28q-30 21 -49 51t-26.5 69t-9.5 67t-2 72zM409 167h288q30 3 45.5 5.5t35 12.5t29.5 28q12 20 17 64v153q-2 27 -7 43q-12 38 -37.5 49.5t-76.5 15.5h-302q-61 -4 -88 -24q-16 -11 -23 -26q-7 -13 -12 -39q-3 -28 -5 -118q3 -99 22 -126
q13 -18 39.5 -26t74.5 -12zM690 955l41 -148l-303 -53l-24 85z" />
    <glyph glyph-name="Ocircumflex" unicode="&#xd4;" horiz-adv-x="1125" 
d="M53 301l7 207q1 11 5 33q18 91 87 131q40 24 113 34q155 9 259 9q122 0 307 -9q11 -1 33 -5q101 -17 145 -95q27 -49 32 -142q4 -101 2 -152q0 -15 -1 -31.5t-2.5 -36.5t-2.5 -32q-12 -91 -49 -136q-36 -44 -87.5 -59.5t-127.5 -21.5q-210 -3 -212 -3q-80 0 -242 4
q-42 3 -64.5 5.5t-55.5 12.5t-59 28q-30 21 -49 51t-26.5 69t-9.5 67t-2 72zM409 167h288q30 3 45.5 5.5t35 12.5t29.5 28q12 20 17 64v153q-2 27 -7 43q-12 38 -37.5 49.5t-76.5 15.5h-302q-61 -4 -88 -24q-16 -11 -23 -26q-7 -13 -12 -39q-3 -28 -5 -118q3 -99 22 -126
q13 -18 39.5 -26t74.5 -12zM550 940l265 -125l-28 -66l-32 5l-178 42l-5 1q-5 1 -12 1.5t-11 0.5q-7 0 -26 -3l-167 -38l-39 -6l-28 65z" />
    <glyph glyph-name="Otilde" unicode="&#xd5;" horiz-adv-x="1125" 
d="M53 301l7 207q1 11 5 33q18 91 87 131q40 24 113 34q155 9 259 9q122 0 307 -9q11 -1 33 -5q101 -17 145 -95q27 -49 32 -142q4 -101 2 -152q0 -15 -1 -31.5t-2.5 -36.5t-2.5 -32q-12 -91 -49 -136q-36 -44 -87.5 -59.5t-127.5 -21.5q-210 -3 -212 -3q-80 0 -242 4
q-42 3 -64.5 5.5t-55.5 12.5t-59 28q-30 21 -49 51t-26.5 69t-9.5 67t-2 72zM409 167h288q30 3 45.5 5.5t35 12.5t29.5 28q12 20 17 64v153q-2 27 -7 43q-12 38 -37.5 49.5t-76.5 15.5h-302q-61 -4 -88 -24q-16 -11 -23 -26q-7 -13 -12 -39q-3 -28 -5 -118q3 -99 22 -126
q13 -18 39.5 -26t74.5 -12zM719 942h97q-1 -6 -3.5 -17.5t-3.5 -17.5q-23 -84 -79 -116q-35 -19 -76 -19q-15 0 -61 8l-137 37q-28 6 -42 6q-35 0 -49 -24q-6 -13 -6 -27l-103 1q6 34 11 53t18.5 42.5t35.5 41.5q26 19 48 26q24 9 58 9q45 0 126 -27q69 -23 102 -23
q38 0 56 25q4 8 8 22z" />
    <glyph glyph-name="Odieresis" unicode="&#xd6;" horiz-adv-x="1125" 
d="M53 302l7 206l4.5 28t7 32t15 38t24.5 34t38.5 32.5t53.5 22.5q18 5 62 12q193 9 259 9q75 0 307 -9q6 -1 17 -2.5t16 -2.5q100 -17 145 -96q26 -45 32 -141q4 -102 2 -153l-6 -99q-1 -5 -2 -15t-2 -15q-16 -87 -68 -130q-12 -12 -39 -26q-53 -25 -153 -31
q-142 -4 -215 -4q-79 0 -239 4q-40 3 -61.5 5.5t-53.5 11.5t-57 25q-26 17 -45 41.5t-28 48t-14 58t-6 57t-1 59.5zM409 168h288q28 2 44 4.5t35 12t30 25.5q12 19 18 67v153q-2 27 -7 44q-8 27 -26 41t-35.5 17.5t-52.5 5.5h-302q-56 -2 -83 -20q-33 -22 -40 -69
q-3 -28 -5 -117q3 -99 22 -126q13 -18 39.5 -26t74.5 -12zM305 901h194v-126h-194v126zM605 899h192v-124h-192v124z" />
    <glyph glyph-name="multiply" unicode="&#xd7;" horiz-adv-x="667" 
d="M516 19l-183 182l-182 -182l-90 91l182 181l-182 183l90 88l182 -181l183 181l89 -88l-181 -183l181 -181z" />
    <glyph glyph-name="Oslash" unicode="&#xd8;" horiz-adv-x="1125" 
d="M10 102l65 41q-14 53 -16 77.5t-4 118.5q0 15 -0.5 47t-0.5 48q0 128 54 192q28 34 69.5 52.5t120.5 26.5q83 9 302 9q26 0 78 0.5t78 0.5q83 0 124 -12t88 -42l122 69v-122l-67 -38q20 -98 20 -186v-85q-1 -53 -2 -76t-12 -61t-33 -67q-18 -27 -47 -46q-32 -21 -81 -33
q-92 -21 -422 -21q-15 0 -46.5 -0.5t-47.5 -0.5q-121 0 -177 27q-19 9 -45 30l-120 -71v122zM269 254l489 284q-12 9 -21 13q-17 8 -74 8q-55 0 -83 -1q-89 0 -154 -5q-64 -4 -89 -10t-44 -26q-31 -34 -31 -104q0 -38 7 -159zM832 461l-497 -291q55 -16 112 -16q23 0 69 -1
t69 -1q49 1 102 6q3 0 20 1t22.5 2t19.5 3t21 5t16.5 8t16.5 12q35 34 35 106q0 19 -2 57q-2 72 -4 109z" />
    <glyph glyph-name="Ugrave" unicode="&#xd9;" horiz-adv-x="1104" 
d="M78 706h217v-412q2 -64 20 -91q17 -24 50.5 -31.5t96.5 -6.5h208q58 8 78 25q25 23 29 90v426h218v-468q-2 -34 -5 -51q-15 -104 -91 -151q-53 -33 -162 -42q-22 0 -63 -1t-74 -1.5t-63 -0.5q-96 0 -231 7l-43 6q-106 19 -149 88q-27 43 -36 130v484zM408 954l284 -114
l-26 -87l-303 55z" />
    <glyph glyph-name="Uacute" unicode="&#xda;" horiz-adv-x="1104" 
d="M78 706h217v-412q2 -64 20 -91q17 -24 50.5 -31.5t96.5 -6.5h208q58 8 78 25q25 23 29 90v426h218v-468q-2 -34 -5 -51q-15 -104 -91 -151q-53 -33 -162 -42q-22 0 -63 -1t-74 -1.5t-63 -0.5q-96 0 -231 7l-43 6q-106 19 -149 88q-27 43 -36 130v484zM680 955l40 -148
l-303 -53l-23 85z" />
    <glyph glyph-name="Ucircumflex" unicode="&#xdb;" horiz-adv-x="1104" 
d="M78 706h217v-412q2 -64 20 -91q17 -24 50.5 -31.5t96.5 -6.5h208q58 8 78 25q25 23 29 90v426h218v-468q-2 -34 -5 -51q-15 -104 -91 -151q-53 -33 -162 -42q-22 0 -63 -1t-74 -1.5t-63 -0.5q-96 0 -231 7l-43 6q-106 19 -149 88q-27 43 -36 130v484zM540 940l265 -125
l-29 -66l-31 5l-178 42l-5 1q-5 1 -12 1.5t-11 0.5q-7 0 -27 -3l-167 -38l-38 -6l-28 65z" />
    <glyph glyph-name="Udieresis" unicode="&#xdc;" horiz-adv-x="1104" 
d="M78 706h217v-413q0 -61 20 -91q16 -24 49 -31.5t98 -7.5h208q64 10 81 30q22 25 26 86v427h218v-469l-3 -41q-16 -116 -98 -164q-51 -31 -157 -40q-122 -4 -184 -4q-55 0 -111 3q-70 3 -136 9q-26 2 -39 4q-103 12 -149 81q-31 46 -40 136v485zM294 899h193v-125h-193
v125zM593 897h194v-122h-194v122z" />
    <glyph glyph-name="germandbls" unicode="&#xdf;" 
d="M292 194l158 -1q6 -31 12 -41q15 -26 51 -26q19 0 35 10q19 11 24.5 26.5t6.5 42.5v68q0 40 -15 59q-12 14 -26 20q-22 10 -110 13h-96v124h121q54 1 69 20q9 11 9 26q0 34 -40 44q-27 9 -78 9q-12 0 -64 -5q-44 -4 -65 -17q-15 -10 -22.5 -25.5t-9 -27.5t-2.5 -36v-478
h-188v500q3 40 3 41q9 73 44 110q22 23 62.5 38t65.5 19.5t72 10.5q70 4 105 4q19 0 106 -5l51 -9q104 -22 133 -91q13 -31 13 -67q0 -45 -18.5 -72.5t-40.5 -38.5q-15 -9 -53 -17q26 -3 38.5 -5t30.5 -9.5t34 -20.5q56 -48 56 -153q0 -95 -37 -153q-16 -25 -38 -43
q-61 -52 -182 -52q-81 0 -132.5 32t-69.5 74q-13 31 -13 102z" />
    <glyph glyph-name="agrave" unicode="&#xe0;" horiz-adv-x="812" 
d="M539 273v40q-2 34 -10 50q-15 27 -88 27h-126q-28 -1 -37.5 -7t-18.5 -31l-184 1q4 41 10 59q10 25 37.5 48t73.5 34q40 9 179 14h105q7 0 22.5 -0.5t22.5 -0.5q122 -7 165 -57q24 -26 30.5 -56t6.5 -75v-319h-183l6 97q-21 -48 -35 -62q-46 -46 -171 -46q-21 0 -60.5 2
t-52.5 2q-79 2 -124 30q-54 35 -54 123q0 111 66 145q50 25 154 25h115q57 2 82.5 -5t68.5 -38zM341 107h63q89 3 112 16q24 18 24 38q-4 19 -13 30q-10 11 -25 16.5t-26 6t-46 1.5h-51q-13 -1 -37.5 -2.5t-36.5 -2.5q-49 -2 -62 -24q-6 -12 -6 -22q0 -21 13 -34
q12 -16 30 -19.5t61 -3.5zM293 707l244 -98l-21 -70l-261 49z" />
    <glyph glyph-name="aacute" unicode="&#xe1;" horiz-adv-x="812" 
d="M539 273v40q-2 34 -10 50q-15 27 -88 27h-126q-28 -1 -37.5 -7t-18.5 -31l-184 1q4 41 10 59q10 25 37.5 48t73.5 34q40 9 179 14h105q7 0 22.5 -0.5t22.5 -0.5q122 -7 165 -57q24 -26 30.5 -56t6.5 -75v-319h-183l6 97q-21 -48 -35 -62q-46 -46 -171 -46q-21 0 -60.5 2
t-52.5 2q-79 2 -124 30q-54 35 -54 123q0 111 66 145q50 25 154 25h115q57 2 82.5 -5t68.5 -38zM341 107h63q89 3 112 16q24 18 24 38q-4 19 -13 30q-10 11 -25 16.5t-26 6t-46 1.5h-51q-13 -1 -37.5 -2.5t-36.5 -2.5q-49 -2 -62 -24q-6 -12 -6 -22q0 -21 13 -34
q12 -16 30 -19.5t61 -3.5zM502 714l38 -123l-264 -48l-19 72z" />
    <glyph glyph-name="acircumflex" unicode="&#xe2;" horiz-adv-x="812" 
d="M539 273v40q-2 34 -10 50q-15 27 -88 27h-126q-28 -1 -37.5 -7t-18.5 -31l-184 1q4 41 10 59q10 25 37.5 48t73.5 34q40 9 179 14h105q7 0 22.5 -0.5t22.5 -0.5q122 -7 165 -57q24 -26 30.5 -56t6.5 -75v-319h-183l6 97q-21 -48 -35 -62q-46 -46 -171 -46q-21 0 -60.5 2
t-52.5 2q-79 2 -124 30q-54 35 -54 123q0 111 66 145q50 25 154 25h115q57 2 82.5 -5t68.5 -38zM341 107h63q89 3 112 16q24 18 24 38q-4 19 -13 30q-10 11 -25 16.5t-26 6t-46 1.5h-51q-13 -1 -37.5 -2.5t-36.5 -2.5q-49 -2 -62 -24q-6 -12 -6 -22q0 -21 13 -34
q12 -16 30 -19.5t61 -3.5zM398 722l213 -137l-28 -58l-185 65l-190 -65l-25 61z" />
    <glyph glyph-name="atilde" unicode="&#xe3;" horiz-adv-x="812" 
d="M539 273v40q-2 34 -10 50q-15 27 -88 27h-126q-28 -1 -37.5 -7t-18.5 -31l-184 1q4 41 10 59q10 25 37.5 48t73.5 34q40 9 179 14h105q7 0 22.5 -0.5t22.5 -0.5q122 -7 165 -57q24 -26 30.5 -56t6.5 -75v-319h-183l6 97q-21 -48 -35 -62q-46 -46 -171 -46q-21 0 -60.5 2
t-52.5 2q-79 2 -124 30q-54 35 -54 123q0 111 66 145q50 25 154 25h115q57 2 82.5 -5t68.5 -38zM341 107h63q89 3 112 16q24 18 24 38q-4 19 -13 30q-10 11 -25 16.5t-26 6t-46 1.5h-51q-13 -1 -37.5 -2.5t-36.5 -2.5q-49 -2 -62 -24q-6 -12 -6 -22q0 -21 13 -34
q12 -16 30 -19.5t61 -3.5zM524 706h90q-11 -75 -39 -107q-40 -46 -104 -47q-39 1 -72 16l-19.5 8l-22 9t-19 5.5t-22.5 2.5q-16 0 -28 -5q-17 -6 -35 -42h-86q11 56 21 78q40 80 124 79q36 0 70 -17l18.5 -9t21.5 -10t18.5 -6t22.5 -3q14 0 24 3t17.5 11t10 13.5z" />
    <glyph glyph-name="adieresis" unicode="&#xe4;" horiz-adv-x="812" 
d="M537 276v44q0 37 -18 55q-23 21 -85 18h-112q-41 0 -52 -15q-4 -6 -11 -25l-184 1l1 12q1 12 3.5 26t6.5 24q25 61 110 81q38 10 223 15h24q89 -3 136 -8.5t76 -22.5q35 -21 54 -58q16 -32 17 -94v-329h-183v84q-21 -37 -35 -52t-34 -23q-45 -20 -153 -20q-36 0 -108 4
q-74 6 -105 25q-28 17 -42.5 47t-14.5 89q0 88 45 125q19 16 45 24.5t42.5 10.5t50.5 4h178q47 -1 68 -8t57 -34zM207 654h148v-109h-148v109zM243 188q-6 -9 -6 -24q0 -33 26 -45q21 -12 84 -12q75 0 114 4q52 4 67 24q10 13 10 30q0 9 -3 17q-2 5 -6 9.5t-7.5 7.5t-10 6
t-10.5 4.5t-12 2.5l-12 1.5t-12.5 1t-11 0.5h-11.5h-9q-105 0 -136 -4l-5 -1q-6 -1 -12 -2.5l-13.5 -3.5t-13.5 -6.5t-10 -9.5zM421 653h146v-109h-146v109z" />
    <glyph glyph-name="aring" unicode="&#xe5;" horiz-adv-x="812" 
d="M537 276v38q-2 20 -3.5 29t-7 20.5t-15.5 17.5q-20 12 -80 12h-112q-20 0 -28 -2q-12 -2 -18.5 -9t-14.5 -27h-184q3 25 3 26q5 52 48 85q36 27 89.5 35t159.5 10h95q97 -2 146.5 -14.5t77.5 -49.5q30 -40 32 -119v-328h-182v92q-20 -45 -38 -62q-43 -40 -177 -40
q-39 0 -58 1q-9 0 -26.5 0.5t-26.5 0.5q-88 7 -127 38q-42 35 -42 116q0 64 16 95.5t47 48.5q47 26 152 28h126q43 1 63.5 -1.5t40.5 -13.5q9 -5 44 -27zM344 107h52q52 2 78 5q37 4 52 20q12 12 12 28q0 34 -31 48q-13 4 -70 8h-75q-75 0 -100 -12q-27 -14 -27 -41
q0 -16 10 -30t24 -19q9 -3 75 -7zM243 652q6 22 30 41q32 24 99 26q22 2 32 2q67 -1 100.5 -25.5t33.5 -64.5q0 -34 -23 -54q-36 -32 -118 -32q-69 0 -105 15q-17 7 -29 20q-30 34 -20 72zM359 605h52q23 -1 33 2q10 4 18.5 12.5t8.5 16.5q0 14 -25 22q-20 8 -60 6
q-47 0 -69 -12q-11 -6 -11 -15q0 -7 7 -16q13 -16 46 -16z" />
    <glyph glyph-name="ae" unicode="&#xe6;" horiz-adv-x="1292" 
d="M258 353h-189q0 21 2 31q5 46 40 77q23 21 57.5 32t59 12.5t70.5 2.5h140q123 -2 169 -36q11 -8 33 -36q24 35 55 51q39 18 128 20h137q7 0 23 -0.5t24 -0.5q126 -7 171 -77q18 -27 26.5 -68.5t7.5 -78t-1 -71.5l-489 -1q0 -44 13 -65q16 -27 54 -32q28 -4 81 -4h42
q15 0 51 2l9 1q8 1 16.5 3t13.5 6q13 9 25 45h186q-2 -52 -19 -84q-48 -91 -259 -91q-16 0 -48 0.5t-48 0.5q-149 0 -195 33q-16 11 -36 47q-4 -9 -9 -15q-21 -31 -61 -45q-54 -19 -149 -19h-68q-110 0 -157 11q-47 13 -72 33q-45 38 -45 124q0 93 56 127q43 27 136 29h128
q9 0 28.5 -0.5t29.5 -0.5q43 0 61.5 -7t53.5 -35v45q0 33 -18 50q-5 5 -10.5 8.5t-12.5 6t-11.5 3.5t-13.5 2t-12.5 1t-14 0.5t-12.5 0.5q-11 0 -31.5 0.5t-30.5 0.5q-9 0 -26.5 -0.5t-27.5 -0.5q-28 0 -38 -5q-11 -5 -23 -33zM451 214h-111q-14 0 -44 -2q-21 0 -35 -7
q-27 -15 -27 -46q0 -13 10 -26q12 -13 29.5 -17t57.5 -5q20 -1 59 -1q38 0 77 3q29 0 47 10q24 13 24 37q0 15 -11 28q-10 12 -25 18t-22.5 6.5t-28.5 1.5zM718 316h308q-8 46 -25 60t-81 15h-79q-70 2 -96 -17q-14 -11 -21 -26q-3 -9 -6 -32z" />
    <glyph glyph-name="ccedilla" unicode="&#xe7;" horiz-adv-x="812" 
d="M737 300h-187q-4 25 -13 35q-8 10 -25 18q-33 13 -105 13q-40 0 -73 -4q-40 -4 -56 -14q-39 -22 -39 -103q0 -74 40 -96q24 -15 112 -15q23 0 75 2q48 0 71 24q12 13 17 43l188 -1q-5 -95 -29 -130q-33 -48 -108 -66q-71 -16 -192 -16q-29 0 -85 2q-135 7 -189 37
q-49 28 -70 83q-20 52 -20 143q0 14 1.5 30.5t7 53t22.5 70t43 52.5q66 48 289 48q73 0 140 -7q62 -7 102 -25t63 -62q20 -38 20 -115zM403 -15l64 -105l-190 -45l-38 67z" />
    <glyph glyph-name="egrave" unicode="&#xe8;" horiz-adv-x="792" 
d="M711 211h-472q-2 -35 4 -54.5t29 -33.5q14 -8 32 -12t26.5 -5t36 -0.5t28.5 0.5q73 0 96 8q20 7 26 15q8 10 12 32l182 -1q0 -22 -2 -33q-5 -48 -43 -82q-27 -24 -66 -36t-67 -14t-79 -3h-109l-57 3q-115 8 -171 53q-25 20 -40 50q-28 53 -28 160q0 6 0.5 19t0.5 19
q6 111 68 159q69 53 268 53q88 0 143 -8q49 -6 76 -17.5t49 -32.5q25 -22 39 -53q10 -21 14 -46.5t4 -58.5v-81zM239 310l291 1q-4 46 -19 60q-24 21 -114 21q-44 0 -80 -4q-44 -3 -64 -25q-16 -17 -14 -53zM283 707l244 -98l-22 -70l-261 49z" />
    <glyph glyph-name="eacute" unicode="&#xe9;" horiz-adv-x="792" 
d="M711 211h-472q-2 -35 4 -54.5t29 -33.5q14 -8 32 -12t26.5 -5t36 -0.5t28.5 0.5q73 0 96 8q20 7 26 15q8 10 12 32l182 -1q0 -22 -2 -33q-5 -48 -43 -82q-27 -24 -66 -36t-67 -14t-79 -3h-109l-57 3q-115 8 -171 53q-25 20 -40 50q-28 53 -28 160q0 6 0.5 19t0.5 19
q6 111 68 159q69 53 268 53q88 0 143 -8q49 -6 76 -17.5t49 -32.5q25 -22 39 -53q10 -21 14 -46.5t4 -58.5v-81zM239 310l291 1q-4 46 -19 60q-24 21 -114 21q-44 0 -80 -4q-44 -3 -64 -25q-16 -17 -14 -53zM492 714l38 -123l-264 -48l-19 72z" />
    <glyph glyph-name="ecircumflex" unicode="&#xea;" horiz-adv-x="792" 
d="M711 211h-472q-2 -35 4 -54.5t29 -33.5q14 -8 32 -12t26.5 -5t36 -0.5t28.5 0.5q73 0 96 8q20 7 26 15q8 10 12 32l182 -1q0 -22 -2 -33q-5 -48 -43 -82q-27 -24 -66 -36t-67 -14t-79 -3h-109l-57 3q-115 8 -171 53q-25 20 -40 50q-28 53 -28 160q0 6 0.5 19t0.5 19
q6 111 68 159q69 53 268 53q88 0 143 -8q49 -6 76 -17.5t49 -32.5q25 -22 39 -53q10 -21 14 -46.5t4 -58.5v-81zM239 310l291 1q-4 46 -19 60q-24 21 -114 21q-44 0 -80 -4q-44 -3 -64 -25q-16 -17 -14 -53zM387 722l214 -137l-28 -58l-186 65l-189 -65l-26 61z" />
    <glyph glyph-name="edieresis" unicode="&#xeb;" horiz-adv-x="792" 
d="M711 211h-472q-2 -35 4 -54.5t29 -33.5q14 -8 32 -12t26.5 -5t36 -0.5t28.5 0.5q73 0 96 8q20 7 26 15q8 10 12 32l182 -1q0 -22 -2 -33q-5 -48 -43 -82q-27 -24 -66 -36t-67 -14t-79 -3h-109l-57 3q-115 8 -171 53q-25 20 -40 50q-28 53 -28 160q0 6 0.5 19t0.5 19
q6 111 68 159q69 53 268 53q88 0 143 -8q49 -6 76 -17.5t49 -32.5q25 -22 39 -53q10 -21 14 -46.5t4 -58.5v-81zM239 310l291 1q-4 46 -19 60q-24 21 -114 21q-44 0 -80 -4q-44 -3 -64 -25q-16 -17 -14 -53zM207 650h145v-108h-145v108zM419 651h148v-108h-148v108z" />
    <glyph glyph-name="igrave" unicode="&#xec;" horiz-adv-x="333" 
d="M63 500h187v-500h-187v500zM53 707l245 -98l-22 -70l-261 49z" />
    <glyph glyph-name="iacute" unicode="&#xed;" horiz-adv-x="333" 
d="M63 500h187v-500h-187v500zM263 714l38 -123l-264 -48l-20 72z" />
    <glyph glyph-name="icircumflex" unicode="&#xee;" horiz-adv-x="333" 
d="M63 500h187v-500h-187v500zM158 722l214 -137l-28 -58l-186 65l-189 -65l-26 61z" />
    <glyph glyph-name="idieresis" unicode="&#xef;" horiz-adv-x="333" 
d="M63 500h187v-500h-187v500zM-22 650h145v-108h-145v108zM190 651h148v-108h-148v108z" />
    <glyph glyph-name="ntilde" unicode="&#xf1;" 
d="M67 500h183v-88q6 11 14 23q19 29 49 45q53 29 187 29q114 0 180 -50q31 -23 46 -53q18 -35 23 -115v-291h-185v253q0 33 -3 46q-13 50 -70 58q-36 6 -100 6q-10 0 -42 -4q-68 -16 -88 -61q-10 -22 -10 -80v-218h-184v500zM534 706h90q-9 -73 -38 -107q-40 -46 -105 -47
q-39 1 -72 16q-61 25 -83 25q-14 0 -27 -5q-19 -7 -35 -42h-87q10 53 22 78q40 80 124 79q36 0 70 -17l18.5 -9t21.5 -10t18.5 -6t22.5 -3q14 0 23 3q23 7 37 45z" />
    <glyph glyph-name="ograve" unicode="&#xf2;" 
d="M54 225q0 49 3 100q4 46 13.5 75t35.5 52q19 16 43.5 26t42 13.5t48.5 8.5q116 8 173 8q56 0 168 -6q53 -9 86.5 -20.5t56.5 -39.5q34 -40 40 -126q2 -36 2 -53q0 -42 -5 -97q-5 -50 -20 -78q-11 -23 -30 -39q-35 -32 -117 -49q-128 -9 -170 -9q-46 0 -89 3q-58 2 -87 4
q-2 0 -16 2t-22 4q-75 15 -111 55q-20 21 -30 52t-12 53.5t-3 60.5zM348 134l36 -3q42 -2 64 -2q47 0 80 11q28 10 40 31q6 14 11 69q2 22 2 33q0 33 -17 59q-7 10 -15 17t-14.5 10.5t-18 5.5t-17.5 2.5t-21 1t-21 0.5q-32 3 -61 3q-33 0 -70 -5q-19 -3 -28 -5t-20.5 -8.5
t-19.5 -17.5q-18 -27 -18 -92q0 -54 15 -77q7 -11 19 -19q17 -11 74 -14zM303 707l245 -98l-22 -70l-261 49z" />
    <glyph glyph-name="oacute" unicode="&#xf3;" 
d="M54 225q0 49 3 100q4 46 13.5 75t35.5 52q19 16 43.5 26t42 13.5t48.5 8.5q116 8 173 8q56 0 168 -6q53 -9 86.5 -20.5t56.5 -39.5q34 -40 40 -126q2 -36 2 -53q0 -42 -5 -97q-5 -50 -20 -78q-11 -23 -30 -39q-35 -32 -117 -49q-128 -9 -170 -9q-46 0 -89 3q-58 2 -87 4
q-2 0 -16 2t-22 4q-75 15 -111 55q-20 21 -30 52t-12 53.5t-3 60.5zM348 134l36 -3q42 -2 64 -2q47 0 80 11q28 10 40 31q6 14 11 69q2 22 2 33q0 33 -17 59q-7 10 -15 17t-14.5 10.5t-18 5.5t-17.5 2.5t-21 1t-21 0.5q-32 3 -61 3q-33 0 -70 -5q-19 -3 -28 -5t-20.5 -8.5
t-19.5 -17.5q-18 -27 -18 -92q0 -54 15 -77q7 -11 19 -19q17 -11 74 -14zM513 714l38 -123l-264 -48l-20 72z" />
    <glyph glyph-name="ocircumflex" unicode="&#xf4;" 
d="M54 225q0 49 3 100q4 46 13.5 75t35.5 52q19 16 43.5 26t42 13.5t48.5 8.5q116 8 173 8q56 0 168 -6q53 -9 86.5 -20.5t56.5 -39.5q34 -40 40 -126q2 -36 2 -53q0 -42 -5 -97q-5 -50 -20 -78q-11 -23 -30 -39q-35 -32 -117 -49q-128 -9 -170 -9q-46 0 -89 3q-58 2 -87 4
q-2 0 -16 2t-22 4q-75 15 -111 55q-20 21 -30 52t-12 53.5t-3 60.5zM348 134l36 -3q42 -2 64 -2q47 0 80 11q28 10 40 31q6 14 11 69q2 22 2 33q0 33 -17 59q-7 10 -15 17t-14.5 10.5t-18 5.5t-17.5 2.5t-21 1t-21 0.5q-32 3 -61 3q-33 0 -70 -5q-19 -3 -28 -5t-20.5 -8.5
t-19.5 -17.5q-18 -27 -18 -92q0 -54 15 -77q7 -11 19 -19q17 -11 74 -14zM398 722l213 -137l-28 -58l-185 65l-190 -65l-25 61z" />
    <glyph glyph-name="otilde" unicode="&#xf5;" 
d="M54 225q0 49 3 100q4 46 13.5 75t35.5 52q19 16 43.5 26t42 13.5t48.5 8.5q116 8 173 8q56 0 168 -6q53 -9 86.5 -20.5t56.5 -39.5q34 -40 40 -126q2 -36 2 -53q0 -42 -5 -97q-5 -50 -20 -78q-11 -23 -30 -39q-35 -32 -117 -49q-128 -9 -170 -9q-46 0 -89 3q-58 2 -87 4
q-2 0 -16 2t-22 4q-75 15 -111 55q-20 21 -30 52t-12 53.5t-3 60.5zM348 134l36 -3q42 -2 64 -2q47 0 80 11q28 10 40 31q6 14 11 69q2 22 2 33q0 33 -17 59q-7 10 -15 17t-14.5 10.5t-18 5.5t-17.5 2.5t-21 1t-21 0.5q-32 3 -61 3q-33 0 -70 -5q-19 -3 -28 -5t-20.5 -8.5
t-19.5 -17.5q-18 -27 -18 -92q0 -54 15 -77q7 -11 19 -19q17 -11 74 -14zM534 706h90q-9 -73 -38 -107q-40 -46 -105 -47q-39 1 -72 16q-61 25 -83 25q-14 0 -27 -5q-19 -7 -35 -42h-87q10 53 22 78q40 80 124 79q36 0 70 -17l18.5 -9t21.5 -10t18.5 -6t22.5 -3q14 0 23 3
q23 7 37 45z" />
    <glyph glyph-name="odieresis" unicode="&#xf6;" 
d="M426 -8h-66q-154 0 -217 32q-28 13 -53 45q-17 23 -25.5 50t-10 47t-1.5 56q0 30 2 90q1 31 3 47.5t10 38.5t24 41q17 20 36 32q66 41 286 41q74 0 134 -4q107 -6 156 -45q61 -48 61 -174q0 -37 -1 -56q0 -47 -2 -72.5t-17 -61t-44 -57.5q-32 -25 -83 -38
q-46 -10 -192 -12zM231 653h145v-108h-145v108zM240 242v-22q4 -61 51 -78q21 -7 108 -10q8 0 26 -0.5t27 -0.5q79 0 107 30q9 9 14 28q7 28 7 83q0 39 -18 63q-7 9 -15 15.5t-13.5 9.5t-18 5.5t-16.5 3t-20.5 1t-19.5 0.5q-7 0 -20 1t-23.5 1.5t-19.5 0.5q-19 0 -63 -4
q-33 -3 -48 -9.5t-25 -21.5q-20 -29 -20 -96zM442 653h147v-109h-147v109z" />
    <glyph glyph-name="divide" unicode="&#xf7;" horiz-adv-x="667" 
d="M414 110q-1 -34 -24 -57t-57 -22q-34 0 -57.5 22.5t-22.5 56.5q0 34 23 57.5t57 23.5t57.5 -23.5t23.5 -57.5zM414 468q-1 -33 -24 -56t-57 -23t-57.5 23t-22.5 57q0 18 6 33q20 46 74 48q34 -1 57.5 -24.5t23.5 -57.5zM667 227h-667v127h667v-127z" />
    <glyph glyph-name="oslash" unicode="&#xf8;" 
d="M6 73l63 33q-11 38 -13.5 61.5t-1.5 81.5v36q1 39 3.5 61.5t14 52.5t32.5 50q26 26 77 40q56 16 202 21q52 3 106 3q111 0 166 -22q15 -6 44 -26l112 61v-84l-68 -38q15 -38 18 -59t2 -65v-62q-1 -43 -3.5 -66t-15.5 -51t-39 -49q-39 -32 -91 -41q-93 -16 -222 -16
q-50 0 -103 3q-63 2 -94 11q-26 7 -83 36l-106 -59v87zM235 200l301 171q-81 9 -135 9q-99 0 -129 -19q-17 -9 -29.5 -35.5t-12.5 -65.5q0 -20 5 -60zM581 313l-299 -171q34 -14 74 -15h104q77 7 103 34q7 7 12 19q13 31 6 133z" />
    <glyph glyph-name="ugrave" unicode="&#xf9;" 
d="M67 500h185v-265q0 -43 16 -64q17 -24 57 -31q44 -4 87 -4q80 0 115 25q13 10 22 25q9 16 15 62v252h185v-500h-184v87q-16 -29 -28.5 -43.5t-37.5 -26.5q-49 -25 -170 -25q-132 0 -190 41q-29 20 -47 53q-17 32 -25 112v302zM303 707l245 -98l-22 -70l-261 49z" />
    <glyph glyph-name="uacute" unicode="&#xfa;" 
d="M67 500h185v-265q0 -43 16 -64q17 -24 57 -31q44 -4 87 -4q80 0 115 25q13 10 22 25q9 16 15 62v252h185v-500h-184v87q-16 -29 -28.5 -43.5t-37.5 -26.5q-49 -25 -170 -25q-132 0 -190 41q-29 20 -47 53q-17 32 -25 112v302zM513 714l38 -123l-264 -48l-20 72z" />
    <glyph glyph-name="ucircumflex" unicode="&#xfb;" 
d="M67 500h185v-265q0 -43 16 -64q17 -24 57 -31q44 -4 87 -4q80 0 115 25q13 10 22 25q9 16 15 62v252h185v-500h-184v87q-16 -29 -28.5 -43.5t-37.5 -26.5q-49 -25 -170 -25q-132 0 -190 41q-29 20 -47 53q-17 32 -25 112v302zM408 722l214 -137l-28 -58l-186 65l-189 -65
l-26 61z" />
    <glyph glyph-name="udieresis" unicode="&#xfc;" 
d="M65 216v284h187v-260q2 -51 19 -73q10 -13 26 -19t26.5 -7t34.5 -2q4 0 29.5 -1.5t38.5 -1.5q49 0 83 16q35 17 44.5 42.5t11.5 76.5v229h186v-500h-186v86q-21 -38 -36 -51q-52 -45 -171 -45q-29 0 -87 4q-48 4 -74 11q-36 11 -69 37q-26 22 -40 52.5t-17 54t-6 67.5z
M374 659v-112h-148v112h148zM437 655h148v-110h-148v110z" />
    <glyph glyph-name="ydieresis" unicode="&#xff;" horiz-adv-x="729" 
d="M203 500l144 -364l160 364h200l-19 -38l-272 -587q-21 -40 -35 -53q-47 -47 -154 -47q-29 0 -85 4v128q39 0 59 1q39 2 58 24q13 17 37 68h-71l-223 500h201zM176 650h145v-108h-145v108zM388 651h148v-108h-148v108z" />
    <glyph glyph-name="dotlessi" unicode="&#x131;" horiz-adv-x="333" 
d="M63 500h187v-500h-187v500z" />
    <glyph glyph-name="OE" unicode="&#x152;" horiz-adv-x="1583" 
d="M803 630v76h697v-162h-506v-118h474v-149h-476v-119h513v-158h-704l-1 72q-30 -31 -51 -45t-55 -21q-52 -10 -148 -10q-33 0 -92.5 2t-78.5 2q-1 0 -22 0.5t-41.5 1.5t-49.5 5t-51 10q-121 33 -146 150q-11 53 -11 150q0 63 3 127q1 51 4.5 79.5t19 65t45.5 62.5
q30 27 71 40.5t67 15.5t82 3q74 2 111 2q82 0 149 -4q92 -2 138 -25q27 -15 59 -53zM576 165h73q48 0 71 7q39 10 63 43q5 7 8 15.5t4.5 15.5t2.5 19.5t1.5 20.5t1 26.5t0.5 29.5q0 10 1 31t1 32q0 56 -24 91q-7 10 -13.5 16.5t-17.5 11l-17.5 7t-23.5 4t-25 1.5t-33.5 0.5
t-37.5 0.5q-15 0 -42.5 1t-50 1.5t-42.5 0.5q-76 0 -117 -6q-46 -8 -63 -25q-10 -10 -16.5 -26t-9 -48.5t-2.5 -46.5t-1 -63q0 -80 22 -113q11 -20 32 -30q8 -4 17 -6.5t22.5 -4t23 -2t31.5 -1t35 -1.5q86 -2 126 -2z" />
    <glyph glyph-name="oe" unicode="&#x153;" horiz-adv-x="1312" 
d="M1242 211h-488q2 -69 31 -87q24 -15 101 -17h53q35 1 49.5 1.5t31 5.5t25.5 15q10 8 11 34l185 -1q0 -58 -20 -89q-10 -15 -24 -28q-64 -54 -221 -54q-11 0 -33.5 0.5t-33.5 0.5q-40 0 -60 1q-95 0 -143 28q-20 12 -46 43q-26 -37 -62 -53q-29 -12 -67 -14.5t-121 -2.5
h-37h-41.5t-38.5 1t-43 3.5l-37.5 6.5t-40.5 11t-35 16q-40 22 -58 52q-17 27 -22.5 69t-5.5 122q0 69 10 107t36 64q39 39 110 51q81 11 220 11q55 0 100 -4q65 -6 99 -30q17 -11 36 -39l4 5q4 6 9 12.5t9 10.5q47 45 173 45q65 0 97 -1q47 0 71 -1q108 -5 160 -54
q45 -42 54 -107q3 -25 3 -134zM233 250q0 -51 10 -70q4 -9 11 -17q7 -9 17.5 -15t18.5 -9.5t22.5 -5.5t21 -2.5t24 -1t22.5 -0.5q34 -2 52 -2q48 0 85 10t48 33q12 21 12 85q0 38 -5.5 57.5t-21.5 32.5q-30 26 -133 26q-45 0 -92 -3q-50 -4 -69 -23q-6 -6 -10 -12t-6.5 -13
t-4 -12t-2 -14.5t-0.5 -13.5v-15v-15zM749 310l310 1q0 20 -4 32q-10 32 -46 44q-26 8 -90 8q-120 0 -146 -26q-14 -14 -24 -59z" />
    <glyph glyph-name="Ydieresis" unicode="&#x178;" horiz-adv-x="1062" 
d="M281 706l237 -288l238 288h282l-408 -459v-247h-221v247l-401 459h273zM273 899h194v-125h-194v125zM571 899h195v-125h-195v125z" />
    <glyph glyph-name="circumflex" unicode="&#x2c6;" horiz-adv-x="313" 
d="M44 722l213 -137l-28 -58l-185 65l-190 -65l-26 61z" />
    <glyph glyph-name="caron" unicode="&#x2c7;" horiz-adv-x="313" 
d="M-143 715l189 -67l191 67l24 -57l-213 -138l-216 138z" />
    <glyph glyph-name="tilde" unicode="&#x2dc;" horiz-adv-x="313" 
d="M170 706h90q-11 -75 -39 -107q-40 -46 -104 -47q-39 1 -72 16l-19.5 8l-22 9t-19 5.5t-22.5 2.5q-16 0 -28 -5q-17 -6 -35 -42h-86q9 52 21 78q40 80 124 79q36 0 70 -17l18.5 -9t21.5 -10t18.5 -6t22.5 -3q14 0 24 3t17.5 11t10 13.5z" />
    <glyph glyph-name="endash" unicode="&#x2013;" horiz-adv-x="792" 
d="M34 357h693v-154h-693v154z" />
    <glyph glyph-name="emdash" unicode="&#x2014;" horiz-adv-x="667" 
d="M667 227h-667v127h667v-127z" />
    <glyph glyph-name="quoteleft" unicode="&#x2018;" horiz-adv-x="313" 
d="M294 706l-1 -109q-51 -2 -66 -14t-25 -61h64v-196h-214v251q0 25 10 51q21 55 74 70q45 14 158 8z" />
    <glyph glyph-name="quoteright" unicode="&#x2019;" horiz-adv-x="313" 
d="M114 516h-63v190h212v-223q0 -20 -1 -29q-3 -52 -35 -85q-27 -28 -72 -36t-134 -7l1 113q44 0 62 12q10 6 16 18t8.5 20t5.5 27z" />
    <glyph glyph-name="quotesinglbase" unicode="&#x201a;" horiz-adv-x="307" 
d="M114 0h-65v196h214v-247q-4 -39 -12.5 -61.5t-33.5 -42.5q-30 -23 -68 -28t-126 -4v112q22 0 33 1t25 7t22 19q9 16 11 48z" />
    <glyph glyph-name="quotedblleft" unicode="&#x201c;" horiz-adv-x="625" 
d="M292 706l-1 -108q-30 -1 -48 -6q-16 -4 -25.5 -15t-13 -22t-7.5 -35h65v-195h-210v237q3 41 8 58q19 66 82 81q33 8 150 5zM601 706v-107q-33 -2 -49 -7q-15 -5 -23.5 -16.5t-11 -21.5t-7.5 -34h60v-194h-209v231q2 27 4 41.5t10.5 34.5t23.5 36q27 28 69.5 34t132.5 3z
" />
    <glyph glyph-name="quotedblright" unicode="&#x201d;" horiz-adv-x="625" 
d="M112 517h-60v189h208v-220q0 -42 -9 -70q-17 -52 -61 -72q-44 -19 -170 -16l1 112q51 1 66 13.5t25 63.5zM424 516h-64v190h210v-221q-1 -29 -3.5 -45.5t-12 -38.5t-26.5 -38q-27 -26 -71.5 -32.5t-127.5 -1.5v111q52 1 68 13.5t27 62.5z" />
    <glyph glyph-name="quotedblbase" unicode="&#x201e;" horiz-adv-x="625" 
d="M107 0h-56v194h208v-231q-5 -75 -35 -109q-18 -21 -48 -32q-39 -13 -156 -11l1 111q10 0 28 2q48 4 57 47q1 6 1 29zM419 0h-61v195h209v-238q-2 -36 -8 -59t-24 -45q-20 -23 -50 -32q-37 -12 -159 -10l1 112q46 0 64 11q22 13 28 66z" />
    <glyph glyph-name="dagger" unicode="&#x2020;" horiz-adv-x="542" 
d="M34 536h144v170h159v-170h141v-123h-142v-413h-160v413h-142v123z" />
    <glyph glyph-name="bullet" unicode="&#x2022;" horiz-adv-x="333" 
d="M322 352q0 -36 -13 -65q-18 -43 -55 -66.5t-84 -23.5q-37 0 -68 14q-40 19 -65 58t-25 84q0 65 46.5 110t110.5 45q35 0 66 -14q19 -9 36 -23t34 -46.5t17 -72.5z" />
    <glyph glyph-name="ellipsis" unicode="&#x2026;" horiz-adv-x="1000" 
d="M913 75q0 -34 -22.5 -57.5t-56.5 -23.5q-15 0 -28 5q-11 4 -21 11t-20.5 24.5t-10.5 39.5q0 33 23.5 56.5t56.5 23.5t56 -23t23 -56zM580 75q0 -34 -22.5 -57.5t-56.5 -23.5q-15 0 -27 5q-53 18 -53 75q0 20 7 34q21 46 73 46q33 0 55.5 -23t23.5 -56zM246 75
q0 -34 -22.5 -57.5t-56.5 -23.5q-15 0 -28 5q-52 21 -52 75q0 33 23.5 56.5t57.5 23.5q33 0 55.5 -23t22.5 -56z" />
    <glyph glyph-name="fraction" unicode="&#x2044;" horiz-adv-x="167" 
d="M281 706h108l-495 -706h-107z" />
    <glyph glyph-name="trademark" unicode="&#x2122;" horiz-adv-x="688" 
d="M674 374h-82l4 177q1 34 6 67q-3 -9 -7.5 -27l-6.5 -26l-56 -191h-75l-59 192q-1 4 -3.5 11.5l-3.5 10.5q-4 20 -7 29q6 -44 7 -66l5 -177h-82v332h106l76 -239l71 239h107v-332zM187 374h-85v265h-102v67h287v-67h-100v-265z" />
    <glyph glyph-name="minus" unicode="&#x2212;" horiz-adv-x="667" 
d="M667 227h-667v127h667v-127z" />
    <glyph glyph-name="Acute" unicode="&#xf6c9;" horiz-adv-x="313" 
d="M180 955l40 -148l-303 -53l-23 85z" />
    <glyph glyph-name="Caron" unicode="&#xf6ca;" horiz-adv-x="313" 
d="M-191 948l239 -53l230 50l29 -67l-266 -124l-262 130z" />
    <glyph glyph-name="Dieresis" unicode="&#xf6cb;" horiz-adv-x="313" 
d="M-206 899h193v-125h-193v125zM92 899h195v-125h-195v125z" />
    <glyph glyph-name="Grave" unicode="&#xf6ce;" horiz-adv-x="313" 
d="M-92 954l284 -114l-26 -87l-303 55z" />
    <glyph glyph-name="onefitted" unicode="&#xf6dc;" horiz-adv-x="792" 
d="M314 706h260v-706h-209l6 543l-263 -179l-97 147z" />
    <glyph glyph-name="fi" unicode="&#xfb01;" horiz-adv-x="792" 
d="M4 497h98v45q2 24 3 35q6 56 41 93q26 29 69.5 39.5t125.5 12.5h103v-123h-47q-66 -3 -88 -22q-20 -17 -20 -79h165v-126h-166v-372h-187v371h-97v126zM521 500h185v-500h-185v500zM522 706h185v-137h-185v137z" />
    <glyph glyph-name="fl" unicode="&#xfb02;" horiz-adv-x="792" 
d="M4 497h98v45q2 24 3 35q6 56 41 93q26 29 69.5 39.5t125.5 12.5h103v-123h-47q-66 -3 -88 -22q-20 -17 -20 -79h165v-126h-166v-372h-187v371h-97v126zM522 706h184v-706h-184v706z" />
    <glyph glyph-name="Circumflex" horiz-adv-x="313" 
d="M40 940l265 -125l-29 -66l-31 5l-178 42l-5 1q-5 1 -12 1.5t-11 0.5q-7 0 -27 -3l-167 -38l-38 -6l-28 65z" />
    <glyph glyph-name="Tilde" horiz-adv-x="313" 
d="M209 942h97q-2 -6 -4.5 -17.5t-3.5 -17.5q-18 -82 -78 -116q-35 -19 -76 -19q-17 0 -61 8l-138 37q-26 6 -41 6q-35 0 -49 -24q-6 -11 -6 -27l-104 1q9 50 22 80.5t44 56.5q26 19 47 26q25 9 58 9q45 0 126 -27q69 -23 102 -23q39 0 56 25q5 8 9 22z" />
  </font>
</defs>
</svg>
